  0
SECTION
  2
HEADER
  9
$ACADVER
  1
AC1015
  9
$ACADMAINTVER
 70
     6
  9
$DWGCODEPAGE
  3
ANSI_1252
  9
$INSBASE
 10
0.0
 20
0.0
 30
0.0
  9
$EXTMIN
 10
-210.0000000000001
 20
0.0
 30
0.0
  9
$EXTMAX
 10
0.0
 20
297.0000000000001
 30
0.0
  9
$LIMMIN
 10
0.0
 20
0.0
  9
$LIMMAX
 10
12.0
 20
9.0
  9
$ORTHOMODE
 70
     0
  9
$REGENMODE
 70
     1
  9
$FILLMODE
 70
     1
  9
$QTEXTMODE
 70
     0
  9
$MIRRTEXT
 70
     1
  9
$LTSCALE
 40
1.0
  9
$ATTMODE
 70
     1
  9
$TEXTSIZE
 40
0.2
  9
$TRACEWID
 40
0.05
  9
$TEXTSTYLE
  7
Standard
  9
$CLAYER
  8
0
  9
$CELTYPE
  6
ByLayer
  9
$CECOLOR
 62
   256
  9
$CELTSCALE
 40
1.0
  9
$DISPSILH
 70
     0
  9
$DIMSCALE
 40
1.0
  9
$DIMASZ
 40
0.18
  9
$DIMEXO
 40
0.0625
  9
$DIMDLI
 40
0.38
  9
$DIMRND
 40
0.0
  9
$DIMDLE
 40
0.0
  9
$DIMEXE
 40
0.18
  9
$DIMTP
 40
0.0
  9
$DIMTM
 40
0.0
  9
$DIMTXT
 40
0.18
  9
$DIMCEN
 40
0.09
  9
$DIMTSZ
 40
0.0
  9
$DIMTOL
 70
     0
  9
$DIMLIM
 70
     0
  9
$DIMTIH
 70
     1
  9
$DIMTOH
 70
     1
  9
$DIMSE1
 70
     0
  9
$DIMSE2
 70
     0
  9
$DIMTAD
 70
     0
  9
$DIMZIN
 70
     0
  9
$DIMBLK
  1

  9
$DIMASO
 70
     1
  9
$DIMSHO
 70
     1
  9
$DIMPOST
  1

  9
$DIMAPOST
  1

  9
$DIMALT
 70
     0
  9
$DIMALTD
 70
     2
  9
$DIMALTF
 40
25.4
  9
$DIMLFAC
 40
1.0
  9
$DIMTOFL
 70
     0
  9
$DIMTVP
 40
0.0
  9
$DIMTIX
 70
     0
  9
$DIMSOXD
 70
     0
  9
$DIMSAH
 70
     0
  9
$DIMBLK1
  1

  9
$DIMBLK2
  1

  9
$DIMSTYLE
  2
Standard
  9
$DIMCLRD
 70
     0
  9
$DIMCLRE
 70
     0
  9
$DIMCLRT
 70
     0
  9
$DIMTFAC
 40
1.0
  9
$DIMGAP
 40
0.09
  9
$DIMJUST
 70
     0
  9
$DIMSD1
 70
     0
  9
$DIMSD2
 70
     0
  9
$DIMTOLJ
 70
     1
  9
$DIMTZIN
 70
     0
  9
$DIMALTZ
 70
     0
  9
$DIMALTTZ
 70
     0
  9
$DIMUPT
 70
     0
  9
$DIMDEC
 70
     4
  9
$DIMTDEC
 70
     4
  9
$DIMALTU
 70
     2
  9
$DIMALTTD
 70
     2
  9
$DIMTXSTY
  7
Standard
  9
$DIMAUNIT
 70
     0
  9
$DIMADEC
 70
     0
  9
$DIMALTRND
 40
0.0
  9
$DIMAZIN
 70
     0
  9
$DIMDSEP
 70
    46
  9
$DIMATFIT
 70
     3
  9
$DIMFRAC
 70
     0
  9
$DIMLDRBLK
  1

  9
$DIMLUNIT
 70
     2
  9
$DIMLWD
 70
    -2
  9
$DIMLWE
 70
    -2
  9
$DIMTMOVE
 70
     0
  9
$LUNITS
 70
     2
  9
$LUPREC
 70
     4
  9
$SKETCHINC
 40
0.1
  9
$FILLETRAD
 40
0.5
  9
$AUNITS
 70
     0
  9
$AUPREC
 70
     0
  9
$MENU
  1
.
  9
$ELEVATION
 40
0.0
  9
$PELEVATION
 40
0.0
  9
$THICKNESS
 40
0.0
  9
$LIMCHECK
 70
     0
  9
$CHAMFERA
 40
0.5
  9
$CHAMFERB
 40
0.5
  9
$CHAMFERC
 40
1.0
  9
$CHAMFERD
 40
0.0
  9
$SKPOLY
 70
     0
  9
$TDCREATE
 40
2456997.491159479
  9
$TDUCREATE
 40
2456997.449492813
  9
$TDUPDATE
 40
2456997.491159664
  9
$TDUUPDATE
 40
2456997.449492997
  9
$TDINDWG
 40
0.0000000116
  9
$TDUSRTIMER
 40
0.0000000116
  9
$USRTIMER
 70
     1
  9
$ANGBASE
 50
0.0
  9
$ANGDIR
 70
     0
  9
$PDMODE
 70
     0
  9
$PDSIZE
 40
0.0
  9
$PLINEWID
 40
0.0
  9
$SPLFRAME
 70
     0
  9
$SPLINETYPE
 70
     6
  9
$SPLINESEGS
 70
     8
  9
$HANDSEED
  5
2BB
  9
$SURFTAB1
 70
     6
  9
$SURFTAB2
 70
     6
  9
$SURFTYPE
 70
     6
  9
$SURFU
 70
     6
  9
$SURFV
 70
     6
  9
$UCSBASE
  2

  9
$UCSNAME
  2

  9
$UCSORG
 10
0.0
 20
0.0
 30
0.0
  9
$UCSXDIR
 10
1.0
 20
0.0
 30
0.0
  9
$UCSYDIR
 10
0.0
 20
1.0
 30
0.0
  9
$UCSORTHOREF
  2

  9
$UCSORTHOVIEW
 70
     0
  9
$UCSORGTOP
 10
0.0
 20
0.0
 30
0.0
  9
$UCSORGBOTTOM
 10
0.0
 20
0.0
 30
0.0
  9
$UCSORGLEFT
 10
0.0
 20
0.0
 30
0.0
  9
$UCSORGRIGHT
 10
0.0
 20
0.0
 30
0.0
  9
$UCSORGFRONT
 10
0.0
 20
0.0
 30
0.0
  9
$UCSORGBACK
 10
0.0
 20
0.0
 30
0.0
  9
$PUCSBASE
  2

  9
$PUCSNAME
  2

  9
$PUCSORG
 10
0.0
 20
0.0
 30
0.0
  9
$PUCSXDIR
 10
1.0
 20
0.0
 30
0.0
  9
$PUCSYDIR
 10
0.0
 20
1.0
 30
0.0
  9
$PUCSORTHOREF
  2

  9
$PUCSORTHOVIEW
 70
     0
  9
$PUCSORGTOP
 10
0.0
 20
0.0
 30
0.0
  9
$PUCSORGBOTTOM
 10
0.0
 20
0.0
 30
0.0
  9
$PUCSORGLEFT
 10
0.0
 20
0.0
 30
0.0
  9
$PUCSORGRIGHT
 10
0.0
 20
0.0
 30
0.0
  9
$PUCSORGFRONT
 10
0.0
 20
0.0
 30
0.0
  9
$PUCSORGBACK
 10
0.0
 20
0.0
 30
0.0
  9
$USERI1
 70
     0
  9
$USERI2
 70
     0
  9
$USERI3
 70
     0
  9
$USERI4
 70
     0
  9
$USERI5
 70
     0
  9
$USERR1
 40
18.1
  9
$USERR2
 40
0.0
  9
$USERR3
 40
0.0
  9
$USERR4
 40
0.0
  9
$USERR5
 40
0.0
  9
$WORLDVIEW
 70
     1
  9
$SHADEDGE
 70
     3
  9
$SHADEDIF
 70
    70
  9
$TILEMODE
 70
     1
  9
$MAXACTVP
 70
    64
  9
$PINSBASE
 10
0.0
 20
0.0
 30
0.0
  9
$PLIMCHECK
 70
     0
  9
$PEXTMIN
 10
1.00000000000000E+20
 20
1.00000000000000E+20
 30
1.00000000000000E+20
  9
$PEXTMAX
 10
-1.00000000000000E+20
 20
-1.00000000000000E+20
 30
-1.00000000000000E+20
  9
$PLIMMIN
 10
0.0
 20
0.0
  9
$PLIMMAX
 10
12.0
 20
9.0
  9
$UNITMODE
 70
     0
  9
$VISRETAIN
 70
     1
  9
$PLINEGEN
 70
     0
  9
$PSLTSCALE
 70
     1
  9
$TREEDEPTH
 70
  3020
  9
$CMLSTYLE
  2
Standard
  9
$CMLJUST
 70
     0
  9
$CMLSCALE
 40
1.0
  9
$PROXYGRAPHICS
 70
     1
  9
$MEASUREMENT
 70
     1
  9
$CELWEIGHT
370
    -1
  9
$ENDCAPS
280
     0
  9
$JOINSTYLE
280
     0
  9
$LWDISPLAY
290
     0
  9
$INSUNITS
 70
     4
  9
$HYPERLINKBASE
  1

  9
$STYLESHEET
  1

  9
$XEDIT
290
     1
  9
$CEPSNTYPE
380
     0
  9
$PSTYLEMODE
290
     1
  9
$FINGERPRINTGUID
  2
{8F2A48FB-BF32-456D-9BB8-2A28C9882A1C}
  9
$VERSIONGUID
  2
{FAEB1C32-E019-11D5-929B-00C0DF256EC4}
  9
$EXTNAMES
290
     1
  9
$PSVPSCALE
 40
0.0
  9
$OLESTARTUP
290
     0
  0
ENDSEC
  0
SECTION
  2
CLASSES
  0
CLASS
  1
ACDBDICTIONARYWDFLT
  2
AcDbDictionaryWithDefault
  3
ObjectDBX Classes
 90
        0
280
     0
281
     0
  0
CLASS
  1
VISUALSTYLE
  2
AcDbVisualStyle
  3
ObjectDBX Classes
 90
     4095
280
     0
281
     0
  0
CLASS
  1
MATERIAL
  2
AcDbMaterial
  3
ObjectDBX Classes
 90
     1153
280
     0
281
     0
  0
CLASS
  1
DICTIONARYVAR
  2
AcDbDictionaryVar
  3
ObjectDBX Classes
 90
        0
280
     0
281
     0
  0
CLASS
  1
ACDBPLACEHOLDER
  2
AcDbPlaceHolder
  3
ObjectDBX Classes
 90
        0
280
     0
281
     0
  0
CLASS
  1
LAYOUT
  2
AcDbLayout
  3
ObjectDBX Classes
 90
        0
280
     0
281
     0
  0
ENDSEC
  0
SECTION
  2
TABLES
  0
TABLE
  2
VPORT
  5
8
330
0
100
AcDbSymbolTable
 70
     1
  0
VPORT
  5
29
330
8
100
AcDbSymbolTableRecord
100
AcDbViewportTableRecord
  2
*Active
 70
     0
 10
0.0
 20
0.0
 11
1.0
 21
1.0
 12
-105.0000000000001
 22
148.5000000000001
 13
0.0
 23
0.0
 14
0.5
 24
0.5
 15
0.5
 25
0.5
 16
0.0
 26
0.0
 36
1.0
 17
0.0
 27
0.0
 37
0.0
 40
326.7000000000002
 41
1.60267857142857
 42
50.0
 43
0.0
 44
0.0
 50
0.0
 51
0.0
 71
     0
 72
   100
 73
     1
 74
     3
 75
     0
 76
     0
 77
     0
 78
     0
281
     0
 65
     1
110
0.0
120
0.0
130
0.0
111
1.0
121
0.0
131
0.0
112
0.0
122
1.0
132
0.0
 79
     0
146
0.0
  0
ENDTAB
  0
TABLE
  2
LTYPE
  5
5
330
0
100
AcDbSymbolTable
 70
     8
  0
LTYPE
  5
14
330
5
100
AcDbSymbolTableRecord
100
AcDbLinetypeTableRecord
  2
ByBlock
 70
     0
  3

 72
    65
 73
     0
 40
0.0
  0
LTYPE
  5
15
330
5
100
AcDbSymbolTableRecord
100
AcDbLinetypeTableRecord
  2
ByLayer
 70
     0
  3

 72
    65
 73
     0
 40
0.0
  0
LTYPE
  5
16
330
5
100
AcDbSymbolTableRecord
100
AcDbLinetypeTableRecord
  2
Continuous
 70
     0
  3
Solid line
 72
    65
 73
     0
 40
0.0
  0
LTYPE
  5
3F
330
5
100
AcDbSymbolTableRecord
100
AcDbLinetypeTableRecord
  2
DASHED
 70
     0
  3
Dashed
 72
    65
 73
     2
 40
15.0
 49
7.0
 74
     0
 49
-8.0
 74
     0
  0
LTYPE
  5
40
330
5
100
AcDbSymbolTableRecord
100
AcDbLinetypeTableRecord
  2
DOTTED
 70
     0
  3
Dotted
 72
    65
 73
     2
 40
1.0
 49
0.0
 74
     0
 49
-1.0
 74
     0
  0
LTYPE
  5
41
330
5
100
AcDbSymbolTableRecord
100
AcDbLinetypeTableRecord
  2
DOT_CENTER
 70
     0
  3
Dot_Center
 72
    65
 73
     4
 40
14.0
 49
12.0
 74
     0
 49
-1.0
 74
     0
 49
0.0
 74
     0
 49
-1.0
 74
     0
  0
LTYPE
  5
42
330
5
100
AcDbSymbolTableRecord
100
AcDbLinetypeTableRecord
  2
LONG_DASHED
 70
     0
  3
Long_Dashed
 72
    65
 73
     2
 40
15.0
 49
10.0
 74
     0
 49
-5.0
 74
     0
  0
LTYPE
  5
43
330
5
100
AcDbSymbolTableRecord
100
AcDbLinetypeTableRecord
  2
DASH_CENTER
 70
     0
  3
Dash_Center
 72
    65
 73
     4
 40
14.0
 49
11.0
 74
     0
 49
-1.0
 74
     0
 49
1.0
 74
     0
 49
-1.0
 74
     0
  0
LTYPE
  5
44
330
5
100
AcDbSymbolTableRecord
100
AcDbLinetypeTableRecord
  2
PHANTOM
 70
     0
  3
Phantom
 72
    65
 73
     6
 40
13.0
 49
10.0
 74
     0
 49
-1.0
 74
     0
 49
0.0
 74
     0
 49
-1.0
 74
     0
 49
0.0
 74
     0
 49
-1.0
 74
     0
  0
LTYPE
  5
45
330
5
100
AcDbSymbolTableRecord
100
AcDbLinetypeTableRecord
  2
CENTER_DASH_DASH
 70
     0
  3
Center_Dash_Dash
 72
    65
 73
     6
 40
14.0
 49
9.0
 74
     0
 49
-1.0
 74
     0
 49
1.0
 74
     0
 49
-1.0
 74
     0
 49
1.0
 74
     0
 49
-1.0
 74
     0
  0
ENDTAB
  0
TABLE
  2
LAYER
  5
2
330
0
100
AcDbSymbolTable
 70
     2
  0
LAYER
  5
10
330
2
100
AcDbSymbolTableRecord
100
AcDbLayerTableRecord
  2
0
 70
     0
 62
     7
  6
Continuous
370
    -3
390
F
  0
LAYER
  5
46
330
2
100
AcDbSymbolTableRecord
100
AcDbLayerTableRecord
  2
1
 70
     0
 62
     7
  6
Continuous
370
    -3
390
F
  0
ENDTAB
  0
TABLE
  2
STYLE
  5
3
330
0
100
AcDbSymbolTable
 70
     5
  0
STYLE
  5
11
330
3
100
AcDbSymbolTableRecord
100
AcDbTextStyleTableRecord
  2
Standard
 70
     0
 40
0.0
 41
1.0
 50
0.0
 71
     0
 42
0.2
  3
txt
  4

  0
STYLE
  5
259
330
3
100
AcDbSymbolTableRecord
100
AcDbTextStyleTableRecord
  2
CONVERTER_11
 70
     0
 40
0.0
 41
1.2
 50
0.0
 71
     0
 42
0.2
  3
ARIAL.TTF
  4

  0
STYLE
  5
261
330
3
100
AcDbSymbolTableRecord
100
AcDbTextStyleTableRecord
  2
CONVERTER_12
 70
     0
 40
0.0
 41
1.44
 50
0.0
 71
     0
 42
0.2
  3
ARIAL.TTF
  4

  0
STYLE
  5
263
330
3
100
AcDbSymbolTableRecord
100
AcDbTextStyleTableRecord
  2
CONVERTER_13
 70
     0
 40
0.0
 41
0.95
 50
0.0
 71
     0
 42
0.2
  3
simplex.shx
  4

  0
STYLE
  5
265
330
3
100
AcDbSymbolTableRecord
100
AcDbTextStyleTableRecord
  2
CONVERTER_14
 70
     0
 40
0.0
 41
0.665
 50
0.0
 71
     0
 42
0.2
  3
simplex.shx
  4

  0
ENDTAB
  0
TABLE
  2
VIEW
  5
6
330
0
100
AcDbSymbolTable
 70
     0
  0
ENDTAB
  0
TABLE
  2
UCS
  5
7
330
0
100
AcDbSymbolTable
 70
     0
  0
ENDTAB
  0
TABLE
  2
APPID
  5
9
330
0
100
AcDbSymbolTable
 70
     1
  0
APPID
  5
12
330
9
100
AcDbSymbolTableRecord
100
AcDbRegAppTableRecord
  2
ACAD
 70
     0
  0
ENDTAB
  0
TABLE
  2
DIMSTYLE
  5
A
330
0
100
AcDbSymbolTable
 70
     4
100
AcDbDimStyleTable
  0
DIMSTYLE
105
27
330
A
100
AcDbSymbolTableRecord
100
AcDbDimStyleTableRecord
  2
Standard
 70
     0
178
     0
340
11
  0
DIMSTYLE
105
274
102
{ACAD_REACTORS
330
275
102
}
330
A
100
AcDbSymbolTableRecord
100
AcDbDimStyleTableRecord
  2
ME10_DIM_10
 70
     0
 41
3.0
 42
0.5
 44
1.0
 73
     0
 74
     0
 77
     1
 78
     8
140
3.0
147
2.0
172
     1
173
     1
174
     1
175
     1
176
     2
177
     2
271
     2
178
     4
271
     2
340
263
  0
DIMSTYLE
105
27F
102
{ACAD_REACTORS
330
280
102
}
330
A
100
AcDbSymbolTableRecord
100
AcDbDimStyleTableRecord
  2
ME10_DIM_11
 70
     0
 41
3.0
 42
0.5
 44
1.0
 73
     0
 74
     0
 77
     1
 78
     8
140
3.0
147
2.0
172
     1
173
     1
174
     1
175
     1
176
     2
177
     2
271
     2
178
     4
271
     2
340
263
  0
DIMSTYLE
105
28A
102
{ACAD_REACTORS
330
28B
102
}
330
A
100
AcDbSymbolTableRecord
100
AcDbDimStyleTableRecord
  2
ME10_DIM_12
 70
     0
 41
3.0
 42
0.5
 44
1.0
 73
     0
 74
     0
 77
     1
 78
     8
140
3.0
147
2.0
172
     1
173
     1
174
     1
175
     1
176
     2
177
     2
271
     2
178
     4
271
     2
340
263
  0
ENDTAB
  0
TABLE
  2
BLOCK_RECORD
  5
1
330
0
100
AcDbSymbolTable
 70
     4
  0
BLOCK_RECORD
  5
1F
330
1
100
AcDbSymbolTableRecord
100
AcDbBlockTableRecord
  2
*Model_Space
340
22
  0
BLOCK_RECORD
  5
1B
330
1
100
AcDbSymbolTableRecord
100
AcDbBlockTableRecord
  2
*Paper_Space
340
1E
  0
BLOCK_RECORD
  5
23
330
1
100
AcDbSymbolTableRecord
100
AcDbBlockTableRecord
  2
*Paper_Space0
340
26
  0
BLOCK_RECORD
  5
26B
330
1
100
AcDbSymbolTableRecord
100
AcDbBlockTableRecord
  2
*D1
340
0
  0
BLOCK_RECORD
  5
276
330
1
100
AcDbSymbolTableRecord
100
AcDbBlockTableRecord
  2
*D2
340
0
  0
BLOCK_RECORD
  5
281
330
1
100
AcDbSymbolTableRecord
100
AcDbBlockTableRecord
  2
*D3
340
0
  0
ENDTAB
  0
ENDSEC
  0
SECTION
  2
BLOCKS
  0
BLOCK
  5
20
330
1F
100
AcDbEntity
  8
0
100
AcDbBlockBegin
  2
*Model_Space
 70
     0
 10
0.0
 20
0.0
 30
0.0
  3
*Model_Space
  1

  0
ENDBLK
  5
21
330
1F
100
AcDbEntity
  8
0
100
AcDbBlockEnd
  0
BLOCK
  5
1C
330
1B
100
AcDbEntity
 67
     1
  8
0
100
AcDbBlockBegin
  2
*Paper_Space
 70
     0
 10
0.0
 20
0.0
 30
0.0
  3
*Paper_Space
  1

  0
ENDBLK
  5
1D
330
1B
100
AcDbEntity
 67
     1
  8
0
100
AcDbBlockEnd
  0
BLOCK
  5
24
330
23
100
AcDbEntity
  8
0
100
AcDbBlockBegin
  2
*Paper_Space0
 70
     0
 10
0.0
 20
0.0
 30
0.0
  3
*Paper_Space0
  1

  0
ENDBLK
  5
25
330
23
100
AcDbEntity
  8
0
100
AcDbBlockEnd
  0
BLOCK
  5
272
330
26B
100
AcDbEntity
  8
0
100
AcDbBlockBegin
  2
*D1
 70
     1
 10
0.0
 20
0.0
 30
0.0
  3
*D1
  1

  0
LINE
  5
26C
330
26B
100
AcDbEntity
  8
1
  6
Continuous
 62
     2
100
AcDbLine
 10
-149.909945026655
 20
196.128513169316
 30
0.0
 11
-135.209945026655
 21
196.128513169316
 31
0.0
  0
LINE
  5
26D
330
26B
100
AcDbEntity
  8
1
  6
Continuous
 62
     2
100
AcDbLine
 10
-149.909945026655
 20
187.896595743774
 30
0.0
 11
-149.909945026655
 21
197.128513169316
 31
0.0
  0
LINE
  5
26E
330
26B
100
AcDbEntity
  8
1
  6
Continuous
 62
     2
100
AcDbLine
 10
-135.209945026655
 20
187.8965957437743
 30
0.0
 11
-135.209945026655
 21
197.128513169316
 31
0.0
  0
SOLID
  5
26F
330
26B
100
AcDbEntity
  8
1
 62
     2
100
AcDbTrace
 10
-146.909945026655
 20
196.5234706620782
 30
0.0
 11
-146.909945026655
 21
195.7335556765538
 31
0.0
 12
-149.909945026655
 22
196.128513169316
 32
0.0
 13
-149.909945026655
 23
196.128513169316
 33
0.0
  0
SOLID
  5
270
330
26B
100
AcDbEntity
  8
1
 62
     2
100
AcDbTrace
 10
-138.209945026655
 20
195.7335556765538
 30
0.0
 11
-138.209945026655
 21
196.5234706620782
 31
0.0
 12
-135.209945026655
 22
196.128513169316
 32
0.0
 13
-135.209945026655
 23
196.128513169316
 33
0.0
  0
MTEXT
  5
271
330
26B
100
AcDbEntity
  8
1
 62
     4
100
AcDbMText
 10
-146.234945026655
 20
198.428513169316
 30
0.0
 40
3.0
 41
0.0
 71
     7
 72
     1
  1
14,7
  7
CONVERTER_13
 11
0.9999999999970619
 21
2.424068405545306E-6
 31
0.0
 73
     1
 44
0.60024009603842
  0
ENDBLK
  5
273
330
26B
100
AcDbEntity
  8
0
100
AcDbBlockEnd
  0
BLOCK
  5
27D
330
276
100
AcDbEntity
  8
0
100
AcDbBlockBegin
  2
*D2
 70
     1
 10
0.0
 20
0.0
 30
0.0
  3
*D2
  1

  0
LINE
  5
277
330
276
100
AcDbEntity
  8
1
  6
Continuous
 62
     2
100
AcDbLine
 10
-73.98994438599041
 20
197.960155162351
 30
0.0
 11
-43.98994438599035
 21
197.960155162351
 31
0.0
  0
LINE
  5
278
330
276
100
AcDbEntity
  8
1
  6
Continuous
 62
     2
100
AcDbLine
 10
-73.98994438599041
 20
187.896595743774
 30
0.0
 11
-73.98994438599041
 21
198.960155162351
 31
0.0
  0
LINE
  5
279
330
276
100
AcDbEntity
  8
1
  6
Continuous
 62
     2
100
AcDbLine
 10
-43.98994438599035
 20
187.896595743774
 30
0.0
 11
-43.98994438599035
 21
198.960155162351
 31
0.0
  0
SOLID
  5
27A
330
276
100
AcDbEntity
  8
1
 62
     2
100
AcDbTrace
 10
-70.98994438599041
 20
198.3551126551132
 30
0.0
 11
-70.98994438599041
 21
197.5651976695888
 31
0.0
 12
-73.98994438599041
 22
197.960155162351
 32
0.0
 13
-73.98994438599041
 23
197.960155162351
 33
0.0
  0
SOLID
  5
27B
330
276
100
AcDbEntity
  8
1
 62
     2
100
AcDbTrace
 10
-46.98994438599035
 20
197.5651976695888
 30
0.0
 11
-46.98994438599035
 21
198.3551126551132
 31
0.0
 12
-43.98994438599035
 22
197.960155162351
 32
0.0
 13
-43.98994438599035
 23
197.960155162351
 33
0.0
  0
MTEXT
  5
27C
330
276
100
AcDbEntity
  8
1
 62
     4
100
AcDbMText
 10
-61.23994438599038
 20
199.960155162351
 30
0.0
 40
3.0
 41
0.0
 71
     7
 72
     1
  1
30
  7
CONVERTER_13
 11
0.9999999999970619
 21
2.424068405545306E-6
 31
0.0
 73
     1
 44
0.60024009603842
  0
ENDBLK
  5
27E
330
276
100
AcDbEntity
  8
0
100
AcDbBlockEnd
  0
BLOCK
  5
288
330
281
100
AcDbEntity
  8
0
100
AcDbBlockBegin
  2
*D3
 70
     1
 10
0.0
 20
0.0
 30
0.0
  3
*D3
  1

  0
LINE
  5
282
330
281
100
AcDbEntity
  8
1
  6
Continuous
 62
     2
100
AcDbLine
 10
-28.9741391380084
 20
187.396595743774
 30
0.0
 11
-28.9741391380084
 21
153.396595743774
 31
0.0
  0
LINE
  5
283
330
281
100
AcDbEntity
  8
1
  6
Continuous
 62
     2
100
AcDbLine
 10
-41.48994438599036
 20
187.396595743774
 30
0.0
 11
-27.9741391380084
 21
187.396595743774
 31
0.0
  0
LINE
  5
284
330
281
100
AcDbEntity
  8
1
  6
Continuous
 62
     2
100
AcDbLine
 10
-43.48994438599036
 20
153.396595743774
 30
0.0
 11
-27.9741391380084
 21
153.396595743774
 31
0.0
  0
SOLID
  5
285
330
281
100
AcDbEntity
  8
1
 62
     2
100
AcDbTrace
 10
-28.57918164524621
 20
184.396595743774
 30
0.0
 11
-29.36909663077058
 21
184.396595743774
 31
0.0
 12
-28.9741391380084
 22
187.396595743774
 32
0.0
 13
-28.9741391380084
 23
187.396595743774
 33
0.0
  0
SOLID
  5
286
330
281
100
AcDbEntity
  8
1
 62
     2
100
AcDbTrace
 10
-29.36909663077058
 20
156.396595743774
 30
0.0
 11
-28.57918164524621
 21
156.396595743774
 31
0.0
 12
-28.9741391380084
 22
153.396595743774
 32
0.0
 13
-28.9741391380084
 23
153.396595743774
 33
0.0
  0
MTEXT
  5
287
330
281
100
AcDbEntity
  8
1
 62
     4
100
AcDbMText
 10
-30.9741391380084
 20
168.146595743774
 30
0.0
 40
3.0
 41
0.0
 71
     7
 72
     1
  1
34
  7
CONVERTER_13
 11
0.0
 21
1.0
 31
0.0
 73
     1
 44
0.60024009603842
  0
ENDBLK
  5
289
330
281
100
AcDbEntity
  8
0
100
AcDbBlockEnd
  0
ENDSEC
  0
SECTION
  2
ENTITIES
  0
LINE
  5
47
330
1F
100
AcDbEntity
  8
1
  6
Continuous
 62
     7
100
AcDbLine
 10
-189.0
 20
20.0
 30
0.0
 11
-189.0
 21
4.99999999999989
 31
0.0
  0
LINE
  5
48
330
1F
100
AcDbEntity
  8
1
  6
Continuous
 62
     7
100
AcDbLine
 10
-49.0
 20
20.0
 30
0.0
 11
-49.0
 21
5.0
 31
0.0
  0
LINE
  5
49
330
1F
100
AcDbEntity
  8
1
  6
Continuous
 62
     7
100
AcDbLine
 10
-31.6473986225146
 20
20.0
 30
0.0
 11
-31.6473986225146
 21
5.0
 31
0.0
  0
LINE
  5
4A
330
1F
100
AcDbEntity
  8
1
  6
Continuous
 62
     7
100
AcDbLine
 10
-159.0
 20
20.0
 30
0.0
 11
-159.0
 21
5.0
 31
0.0
  0
LINE
  5
4B
330
1F
100
AcDbEntity
  8
1
  6
Continuous
 62
     7
100
AcDbLine
 10
-189.0
 20
12.5
 30
0.0
 11
-159.0
 21
12.5
 31
0.0
  0
LINE
  5
4C
330
1F
100
AcDbEntity
  8
1
  6
Continuous
 62
     7
100
AcDbLine
 10
-210.0000000000001
 20
148.4999999999998
 30
0.0
 11
-195.0000000000001
 21
148.4999999999998
 31
0.0
  0
LINE
  5
4D
330
1F
100
AcDbEntity
  8
1
  6
Continuous
 62
     7
100
AcDbLine
 10
0.0
 20
0.0
 30
0.0
 11
0.0
 21
297.0000000000001
 31
0.0
  0
LINE
  5
4E
330
1F
100
AcDbEntity
  8
1
  6
Continuous
 62
     7
100
AcDbLine
 10
-210.0000000000001
 20
0.0
 30
0.0
 11
0.0
 21
0.0
 31
0.0
  0
LINE
  5
4F
330
1F
100
AcDbEntity
  8
1
  6
Continuous
 62
     7
100
AcDbLine
 10
-210.0000000000001
 20
297.0000000000001
 30
0.0
 11
-210.0000000000001
 21
0.0
 31
0.0
  0
LINE
  5
50
330
1F
100
AcDbEntity
  8
1
  6
Continuous
 62
     7
100
AcDbLine
 10
-5.0
 20
4.99999999999989
 30
0.0
 11
-5.0
 21
292.0000000000001
 31
0.0
  0
LINE
  5
51
330
1F
100
AcDbEntity
  8
1
  6
Continuous
 62
     7
100
AcDbLine
 10
-5.0
 20
292.0000000000001
 30
0.0
 11
-189.0
 21
292.0000000000001
 31
0.0
  0
LINE
  5
52
330
1F
100
AcDbEntity
  8
1
  6
Continuous
 62
     7
100
AcDbLine
 10
-189.0
 20
292.0000000000001
 30
0.0
 11
-189.0
 21
4.99999999999989
 31
0.0
  0
LINE
  5
53
102
{ACAD_REACTORS
330
28F
102
}
330
1F
100
AcDbEntity
  8
1
  6
Continuous
 62
     7
100
AcDbLine
 10
-15.99036597792389
 20
10.07749983983257
 30
0.0
 11
-15.99036597792389
 21
14.92250016016737
 31
0.0
  0
LINE
  5
54
102
{ACAD_REACTORS
330
28C
102
}
330
1F
100
AcDbEntity
  8
1
  6
Continuous
 62
     7
100
AcDbLine
 10
-17.32369931125729
 20
9.3082690706018
 30
0.0
 11
-17.32369931125729
 21
14.23205080756878
 31
0.0
  0
LINE
  5
55
102
{ACAD_REACTORS
330
28C
102
}
330
1F
100
AcDbEntity
  8
1
  6
Continuous
 62
     7
100
AcDbLine
 10
-17.32369931125729
 20
14.23205080756878
 30
0.0
 11
-18.1793617439599
 21
12.75
 31
0.0
  0
LINE
  5
56
102
{ACAD_REACTORS
330
28C
102
}
330
1F
100
AcDbEntity
  8
1
  6
Continuous
 62
     7
100
AcDbLine
 10
-18.46803687855478
 20
12.75
 30
0.0
 11
-19.32369931125729
 21
14.23205080756878
 31
0.0
  0
LINE
  5
57
102
{ACAD_REACTORS
330
28C
102
}
330
1F
100
AcDbEntity
  8
1
  6
Continuous
 62
     7
100
AcDbLine
 10
-19.32369931125729
 20
14.23205080756878
 30
0.0
 11
-19.32369931125729
 21
10.84758507263291
 31
0.0
  0
LINE
  5
58
330
1F
100
AcDbEntity
  8
1
  6
Continuous
 62
     7
100
AcDbLine
 10
-26.74013458639891
 20
12.64436426434128
 30
0.0
 11
-18.32369931125729
 21
17.5
 31
0.0
  0
LINE
  5
59
330
1F
100
AcDbEntity
  8
1
  6
Continuous
 62
     7
100
AcDbLine
 10
-18.32369931125729
 20
17.5
 30
0.0
 11
-9.90726403611589
 21
12.64436426434128
 31
0.0
  0
LINE
  5
5A
330
1F
100
AcDbEntity
  8
1
  6
Continuous
 62
     7
100
AcDbLine
 10
-9.90726403611589
 20
12.35563573565861
 30
0.0
 11
-18.32369931125729
 21
7.5
 31
0.0
  0
LINE
  5
5B
330
1F
100
AcDbEntity
  8
1
  6
Continuous
 62
     7
100
AcDbLine
 10
-18.32369931125729
 20
7.5
 30
0.0
 11
-26.74013458639891
 21
12.35563573565861
 31
0.0
  0
LINE
  5
5C
102
{ACAD_REACTORS
330
28C
102
}
330
1F
100
AcDbEntity
  8
1
  6
Continuous
 62
     7
100
AcDbLine
 10
-19.99036597792409
 20
10.84758507263291
 30
0.0
 11
-19.99036597792409
 21
15.73121731203457
 31
0.0
  0
LINE
  5
5D
102
{ACAD_REACTORS
330
28C
102
}
330
1F
100
AcDbEntity
  8
1
  6
Continuous
 62
     7
100
AcDbLine
 10
-19.49593229430059
 20
15.86370041827229
 30
0.0
 11
-18.32369931125729
 21
13.83333333333326
 31
0.0
  0
LINE
  5
5E
102
{ACAD_REACTORS
330
28C
102
}
330
1F
100
AcDbEntity
  8
1
  6
Continuous
 62
     7
100
AcDbLine
 10
-16.65703264459069
 20
9.3082690706018
 30
0.0
 11
-16.65703264459069
 21
15.73121731203457
 31
0.0
  0
LINE
  5
5F
102
{ACAD_REACTORS
330
28C
102
}
330
1F
100
AcDbEntity
  8
1
  6
Continuous
 62
     7
100
AcDbLine
 10
-17.15146632821399
 20
15.86370041827229
 30
0.0
 11
-18.32369931125729
 21
13.83333333333326
 31
0.0
  0
LINE
  5
60
102
{ACAD_REACTORS
330
28D
102
}
330
1F
100
AcDbEntity
  8
1
  6
Continuous
 62
     7
100
AcDbLine
 10
-21.32369931125729
 20
10.27002114803258
 30
0.0
 11
-21.32369931125729
 21
14.92250016016737
 31
0.0
  0
LINE
  5
61
102
{ACAD_REACTORS
330
28D
102
}
330
1F
100
AcDbEntity
  8
1
  6
Continuous
 62
     7
100
AcDbLine
 10
-20.65703264459069
 20
14.92250016016737
 30
0.0
 11
-20.65703264459069
 21
10.2700211480327
 31
0.0
  0
LINE
  5
62
102
{ACAD_REACTORS
330
28D
102
}
330
1F
100
AcDbEntity
  8
1
  6
Continuous
 62
     7
100
AcDbLine
 10
-20.65703264459069
 20
10.2700211480327
 30
0.0
 11
-18.4904584934275
 21
9.0200745223616
 31
0.0
  0
LINE
  5
63
102
{ACAD_REACTORS
330
28D
102
}
330
1F
100
AcDbEntity
  8
1
  6
Continuous
 62
     7
100
AcDbLine
 10
-18.8236067957539
 20
8.44261746499581
 30
0.0
 11
-20.99018094691701
 21
9.69256409066691
 31
0.0
  0
LINE
  5
64
102
{ACAD_REACTORS
330
28E
102
}
330
1F
100
AcDbEntity
  8
1
  6
Continuous
 62
     7
100
AcDbLine
 10
-21.99036597792409
 20
14.15326939093666
 30
0.0
 11
-21.99036597792409
 21
10.84673060906317
 31
0.0
  0
LINE
  5
65
102
{ACAD_REACTORS
330
28E
102
}
330
1F
100
AcDbEntity
  8
1
  6
Continuous
 62
     7
100
AcDbLine
 10
-22.65703264459069
 20
10.84673060906317
 30
0.0
 11
-22.65703264459069
 21
14.15326939093666
 31
0.0
  0
LINE
  5
66
102
{ACAD_REACTORS
330
28F
102
}
330
1F
100
AcDbEntity
  8
1
  6
Continuous
 62
     7
100
AcDbLine
 10
-15.4904584934275
 20
15.21122868885027
 30
0.0
 11
-14.15712516009418
 21
14.44199791961938
 31
0.0
  0
LINE
  5
67
102
{ACAD_REACTORS
330
28F
102
}
330
1F
100
AcDbEntity
  8
1
  6
Continuous
 62
     7
100
AcDbLine
 10
-14.4902734624205
 20
13.86454086225376
 30
0.0
 11
-15.32369931125729
 21
14.345363467352
 31
0.0
  0
LINE
  5
68
102
{ACAD_REACTORS
330
28F
102
}
330
1F
100
AcDbEntity
  8
1
  6
Continuous
 62
     7
100
AcDbLine
 10
-15.32369931125729
 20
14.345363467352
 30
0.0
 11
-15.32369931125729
 21
12.83333333333326
 31
0.0
  0
LINE
  5
69
102
{ACAD_REACTORS
330
28F
102
}
330
1F
100
AcDbEntity
  8
1
  6
Continuous
 62
     7
100
AcDbLine
 10
-15.32369931125729
 20
12.83333333333326
 30
0.0
 11
-14.32369931125729
 21
12.83333333333326
 31
0.0
  0
LINE
  5
6A
102
{ACAD_REACTORS
330
28F
102
}
330
1F
100
AcDbEntity
  8
1
  6
Continuous
 62
     7
100
AcDbLine
 10
-14.32369931125729
 20
12.16666666666657
 30
0.0
 11
-15.32369931125729
 21
12.16666666666657
 31
0.0
  0
LINE
  5
6B
102
{ACAD_REACTORS
330
28F
102
}
330
1F
100
AcDbEntity
  8
1
  6
Continuous
 62
     7
100
AcDbLine
 10
-15.32369931125729
 20
12.16666666666657
 30
0.0
 11
-15.32369931125729
 21
10.654636532648
 31
0.0
  0
LINE
  5
6C
102
{ACAD_REACTORS
330
28F
102
}
330
1F
100
AcDbEntity
  8
1
  6
Continuous
 62
     7
100
AcDbLine
 10
-15.32369931125729
 20
10.654636532648
 30
0.0
 11
-14.4902734624205
 21
11.13545913774618
 31
0.0
  0
LINE
  5
6D
102
{ACAD_REACTORS
330
28F
102
}
330
1F
100
AcDbEntity
  8
1
  6
Continuous
 62
     7
100
AcDbLine
 10
-14.15712516009418
 20
10.55800208038028
 30
0.0
 11
-15.4904584934275
 21
9.78877131114967
 31
0.0
  0
LINE
  5
6E
330
1F
100
AcDbEntity
  8
1
  6
Continuous
 62
     7
100
AcDbLine
 10
-189.0
 20
25.0
 30
0.0
 11
-5.0
 21
25.0
 31
0.0
  0
LINE
  5
6F
330
1F
100
AcDbEntity
  8
1
  6
Continuous
 62
     7
100
AcDbLine
 10
-182.0
 20
20.0
 30
0.0
 11
-182.0
 21
40.0
 31
0.0
  0
LINE
  5
70
330
1F
100
AcDbEntity
  8
1
  6
Continuous
 62
     7
100
AcDbLine
 10
-163.9999999999999
 20
20.0
 30
0.0
 11
-163.9999999999999
 21
40.0
 31
0.0
  0
LINE
  5
71
330
1F
100
AcDbEntity
  8
1
  6
Continuous
 62
     7
100
AcDbLine
 10
-189.0
 20
30.0
 30
0.0
 11
-5.0
 21
30.0
 31
0.0
  0
LINE
  5
72
330
1F
100
AcDbEntity
  8
1
  6
Continuous
 62
     7
100
AcDbLine
 10
-189.0
 20
35.0
 30
0.0
 11
-5.0
 21
35.0
 31
0.0
  0
LINE
  5
73
330
1F
100
AcDbEntity
  8
1
  6
Continuous
 62
     7
100
AcDbLine
 10
-189.0
 20
40.0
 30
0.0
 11
-5.0
 21
40.0
 31
0.0
  0
LINE
  5
74
330
1F
100
AcDbEntity
  8
1
  6
Continuous
 62
     7
100
AcDbLine
 10
-189.0
 20
4.99999999999989
 30
0.0
 11
-5.0
 21
4.99999999999989
 31
0.0
  0
LINE
  5
75
330
1F
100
AcDbEntity
  8
1
  6
Continuous
 62
     7
100
AcDbLine
 10
-189.0
 20
20.0
 30
0.0
 11
-5.0
 21
20.0
 31
0.0
  0
LINE
  5
76
330
1F
100
AcDbEntity
  8
1
  6
Continuous
 62
     7
100
AcDbLine
 10
-145.0354478246393
 20
170.2945555638419
 30
0.0
 11
-142.5599717679243
 21
171.7227148273313
 31
0.0
  0
LINE
  5
77
330
1F
100
AcDbEntity
  8
1
  6
Continuous
 62
     7
100
AcDbLine
 10
-142.5599717679243
 20
171.7227148273313
 30
0.0
 11
-140.0844957112093
 21
170.2945555638419
 31
0.0
  0
LINE
  5
78
330
1F
100
AcDbEntity
  8
1
  6
Continuous
 62
     7
100
AcDbLine
 10
-140.0844957112093
 20
170.209633558708
 30
0.0
 11
-142.5599717679243
 21
168.7814742952186
 31
0.0
  0
LINE
  5
79
330
1F
100
AcDbEntity
  8
1
  6
Continuous
 62
     7
100
AcDbLine
 10
-142.5599717679243
 20
168.7814742952186
 30
0.0
 11
-145.0354478246393
 21
170.209633558708
 31
0.0
  0
LINE
  5
7A
330
1F
100
AcDbEntity
  8
1
  6
Continuous
 62
     7
100
AcDbLine
 10
-141.7731870267799
 20
170.2465957437744
 30
0.0
 11
-141.2855885307818
 21
170.2465957437744
 31
0.0
  0
LINE
  5
7B
330
1F
100
AcDbEntity
  8
1
  6
Continuous
 62
     7
100
AcDbLine
 10
-141.7731870267799
 20
170.9631943969531
 30
0.0
 11
-141.7731870267799
 21
169.5409947255968
 31
0.0
  0
LINE
  5
7C
330
1F
100
AcDbEntity
  8
1
  6
Continuous
 62
     7
100
AcDbLine
 10
-141.7731870267799
 20
170.9631943969531
 30
0.0
 11
-141.2985535499453
 21
170.689367391087
 31
0.0
  0
LINE
  5
7D
330
1F
100
AcDbEntity
  8
1
  6
Continuous
 62
     7
100
AcDbLine
 10
-141.7731870267799
 20
169.5409947255968
 30
0.0
 11
-141.2985535499453
 21
169.8148217314629
 31
0.0
  0
LINE
  5
7E
330
1F
100
AcDbEntity
  8
1
  6
Continuous
 62
     7
100
AcDbLine
 10
-143.3467565090688
 20
169.5409947255968
 30
0.0
 11
-142.5730911138608
 21
169.0946493052845
 31
0.0
  0
LINE
  5
7F
330
1F
100
AcDbEntity
  8
1
  6
Continuous
 62
     7
100
AcDbLine
 10
-143.7314068269619
 20
169.7629083705351
 30
0.0
 11
-143.7314068269619
 21
170.7480719999401
 31
0.0
  0
LINE
  5
80
330
1F
100
AcDbEntity
  8
1
  6
Continuous
 62
     7
100
AcDbLine
 10
-143.3467565090688
 20
170.9699856448785
 30
0.0
 11
-143.3467565090688
 21
169.5409947255968
 31
0.0
  0
LINE
  5
81
330
1F
100
AcDbEntity
  8
1
  6
Continuous
 62
     7
100
AcDbLine
 10
-142.9421243564801
 20
169.7862695637933
 30
0.0
 11
-142.9421243564801
 21
171.1100849630383
 31
0.0
  0
LINE
  5
82
330
1F
100
AcDbEntity
  8
1
  6
Continuous
 62
     7
100
AcDbLine
 10
-142.1628328033469
 20
169.3161990852697
 30
0.0
 11
-142.1628328033469
 21
171.1360421277292
 31
0.0
  0
LINE
  5
83
330
1F
100
AcDbEntity
  8
1
  6
Continuous
 62
     7
100
AcDbLine
 10
-142.9421243564801
 20
171.1100849630383
 30
0.0
 11
-142.5599717679243
 21
170.4481772634158
 31
0.0
  0
LINE
  5
84
330
1F
100
AcDbEntity
  8
1
  6
Continuous
 62
     7
100
AcDbLine
 10
-142.5599717679243
 20
170.4481772634158
 30
0.0
 11
-142.1628328033469
 21
171.1360421277292
 31
0.0
  0
LINE
  5
85
330
1F
100
AcDbEntity
  8
1
  6
Continuous
 62
     7
100
AcDbLine
 10
0.0
 20
297.0000000000001
 30
0.0
 11
-210.0000000000001
 21
297.0000000000001
 31
0.0
  0
LINE
  5
86
330
1F
100
AcDbEntity
  8
0
  6
Continuous
 62
     7
100
AcDbLine
 10
-43.98994438599036
 20
153.396595743774
 30
0.0
 11
-73.98994438599036
 21
153.396595743774
 31
0.0
  0
LINE
  5
87
330
1F
100
AcDbEntity
  8
0
  6
Continuous
 62
     7
100
AcDbLine
 10
-52.48994438599036
 20
187.396595743774
 30
0.0
 11
-52.48994438599036
 21
169.396595743774
 31
0.0
  0
LINE
  5
88
330
1F
100
AcDbEntity
  8
0
  6
Continuous
 62
     7
100
AcDbLine
 10
-55.98994438599036
 20
187.396595743774
 30
0.0
 11
-55.98994438599036
 21
174.896595743774
 31
0.0
  0
LINE
  5
89
330
1F
100
AcDbEntity
  8
0
  6
Continuous
 62
     7
100
AcDbLine
 10
-52.98994438599036
 20
187.396595743774
 30
0.0
 11
-55.98994438599036
 21
187.396595743774
 31
0.0
  0
LINE
  5
8A
330
1F
100
AcDbEntity
  8
0
  6
Continuous
 62
     7
100
AcDbLine
 10
-52.48994438599036
 20
169.396595743774
 30
0.0
 11
-65.48994438599036
 21
169.396595743774
 31
0.0
  0
LINE
  5
8B
330
1F
100
AcDbEntity
  8
0
  6
Continuous
 62
     7
100
AcDbLine
 10
-61.98994438599038
 20
174.896595743774
 30
0.0
 11
-61.98994438599036
 21
187.396595743774
 31
0.0
  0
LINE
  5
8C
330
1F
100
AcDbEntity
  8
0
  6
Continuous
 62
     7
100
AcDbLine
 10
-52.98994438599036
 20
174.896595743774
 30
0.0
 11
-52.98994438599036
 21
187.396595743774
 31
0.0
  0
LINE
  5
8D
330
1F
100
AcDbEntity
  8
0
  6
Continuous
 62
     7
100
AcDbLine
 10
-64.98994438599036
 20
187.396595743774
 30
0.0
 11
-64.98994438599038
 21
174.896595743774
 31
0.0
  0
LINE
  5
8E
330
1F
100
AcDbEntity
  8
0
  6
Continuous
 62
     7
100
AcDbLine
 10
-61.48994438599038
 20
171.396595743774
 30
0.0
 11
-56.48994438599036
 21
171.396595743774
 31
0.0
  0
LINE
  5
8F
330
1F
100
AcDbEntity
  8
0
  6
Continuous
 62
     7
100
AcDbLine
 10
-56.48994438599036
 20
174.396595743774
 30
0.0
 11
-61.48994438599038
 21
174.396595743774
 31
0.0
  0
LINE
  5
90
330
1F
100
AcDbEntity
  8
0
  6
Continuous
 62
     7
100
AcDbLine
 10
-71.98994438599036
 20
170.396595743774
 30
0.0
 11
-73.98994438599036
 21
170.396595743774
 31
0.0
  0
LINE
  5
91
330
1F
100
AcDbEntity
  8
0
  6
Continuous
 62
     7
100
AcDbLine
 10
-71.98994438599036
 20
187.396595743774
 30
0.0
 11
-71.98994438599036
 21
170.396595743774
 31
0.0
  0
LINE
  5
92
330
1F
100
AcDbEntity
  8
0
  6
Continuous
 62
     7
100
AcDbLine
 10
-73.98994438599036
 20
170.396595743774
 30
0.0
 11
-73.98994438599041
 21
187.396595743774
 31
0.0
  0
LINE
  5
93
330
1F
100
AcDbEntity
  8
0
  6
Continuous
 62
     7
100
AcDbLine
 10
-73.98994438599036
 20
153.396595743774
 30
0.0
 11
-73.98994438599036
 21
170.396595743774
 31
0.0
  0
LINE
  5
94
330
1F
100
AcDbEntity
  8
0
  6
Continuous
 62
     7
100
AcDbLine
 10
-73.98994438599041
 20
183.396595743774
 30
0.0
 11
-75.98994438599041
 21
183.396595743774
 31
0.0
  0
LINE
  5
95
330
1F
100
AcDbEntity
  8
0
  6
Continuous
 62
     7
100
AcDbLine
 10
-75.98994438599041
 20
183.396595743774
 30
0.0
 11
-75.98994438599041
 21
187.396595743774
 31
0.0
  0
LINE
  5
96
330
1F
100
AcDbEntity
  8
0
  6
Continuous
 62
     7
100
AcDbLine
 10
-73.98994438599041
 20
187.396595743774
 30
0.0
 11
-71.98994438599036
 21
187.396595743774
 31
0.0
  0
LINE
  5
97
330
1F
100
AcDbEntity
  8
0
  6
Continuous
 62
     7
100
AcDbLine
 10
-71.98994438599036
 20
187.396595743774
 30
0.0
 11
-70.48994438599036
 21
187.396595743774
 31
0.0
  0
LINE
  5
98
330
1F
100
AcDbEntity
  8
0
  6
Continuous
 62
     7
100
AcDbLine
 10
-65.48994438599038
 20
187.396595743774
 30
0.0
 11
-64.98994438599036
 21
187.396595743774
 31
0.0
  0
LINE
  5
99
330
1F
100
AcDbEntity
  8
0
  6
Continuous
 62
     7
100
AcDbLine
 10
-75.98994438599041
 20
187.396595743774
 30
0.0
 11
-73.98994438599041
 21
187.396595743774
 31
0.0
  0
LINE
  5
9A
330
1F
100
AcDbEntity
  8
0
  6
Continuous
 62
     7
100
AcDbLine
 10
-61.98994438599036
 20
187.396595743774
 30
0.0
 11
-55.98994438599036
 21
187.396595743774
 31
0.0
  0
LINE
  5
9B
330
1F
100
AcDbEntity
  8
0
  6
Continuous
 62
     7
100
AcDbLine
 10
-47.48994438599036
 20
177.396595743774
 30
0.0
 11
-50.48994438599036
 21
177.396595743774
 31
0.0
  0
LINE
  5
9C
330
1F
100
AcDbEntity
  8
0
  6
Continuous
 62
     7
100
AcDbLine
 10
-47.48994438599036
 20
187.396595743774
 30
0.0
 11
-47.48994438599036
 21
177.396595743774
 31
0.0
  0
LINE
  5
9D
330
1F
100
AcDbEntity
  8
0
  6
Continuous
 62
     7
100
AcDbLine
 10
-50.48994438599036
 20
187.396595743774
 30
0.0
 11
-52.48994438599036
 21
187.396595743774
 31
0.0
  0
LINE
  5
9E
330
1F
100
AcDbEntity
  8
0
  6
Continuous
 62
     7
100
AcDbLine
 10
-50.48994438599036
 20
187.396595743774
 30
0.0
 11
-47.48994438599036
 21
187.396595743774
 31
0.0
  0
LINE
  5
9F
330
1F
100
AcDbEntity
  8
0
  6
Continuous
 62
     7
100
AcDbLine
 10
-50.48994438599036
 20
177.396595743774
 30
0.0
 11
-50.48994438599036
 21
187.396595743774
 31
0.0
  0
LINE
  5
A0
330
1F
100
AcDbEntity
  8
0
  6
Continuous
 62
     7
100
AcDbLine
 10
-43.98994438599036
 20
187.396595743774
 30
0.0
 11
-43.98994438599036
 21
170.396595743774
 31
0.0
  0
LINE
  5
A1
330
1F
100
AcDbEntity
  8
0
  6
Continuous
 62
     7
100
AcDbLine
 10
-45.98994438599036
 20
170.396595743774
 30
0.0
 11
-45.98994438599036
 21
187.396595743774
 31
0.0
  0
LINE
  5
A2
330
1F
100
AcDbEntity
  8
0
  6
Continuous
 62
     7
100
AcDbLine
 10
-43.98994438599036
 20
170.396595743774
 30
0.0
 11
-45.98994438599036
 21
170.396595743774
 31
0.0
  0
LINE
  5
A3
330
1F
100
AcDbEntity
  8
0
  6
Continuous
 62
     7
100
AcDbLine
 10
-43.98994438599036
 20
171.8346833595108
 30
0.0
 11
-43.88994438599036
 21
171.8346833595108
 31
0.0
  0
LINE
  5
A4
330
1F
100
AcDbEntity
  8
0
  6
Continuous
 62
     7
100
AcDbLine
 10
-43.88994438599036
 20
173.396595743774
 30
0.0
 11
-43.88994438599036
 21
174.9585081280372
 31
0.0
  0
LINE
  5
A5
330
1F
100
AcDbEntity
  8
0
  6
Continuous
 62
     7
100
AcDbLine
 10
-43.88994438599036
 20
171.8346833595108
 30
0.0
 11
-43.88994438599036
 21
173.396595743774
 31
0.0
  0
LINE
  5
A6
330
1F
100
AcDbEntity
  8
0
  6
Continuous
 62
     7
100
AcDbLine
 10
-43.98994438599036
 20
174.9585081280372
 30
0.0
 11
-43.88994438599036
 21
174.9585081280372
 31
0.0
  0
LINE
  5
A7
330
1F
100
AcDbEntity
  8
0
  6
Continuous
 62
     7
100
AcDbLine
 10
-43.98994438599036
 20
173.396595743774
 30
0.0
 11
-43.88994438599036
 21
173.396595743774
 31
0.0
  0
LINE
  5
A8
330
1F
100
AcDbEntity
  8
0
  6
Continuous
 62
     7
100
AcDbLine
 10
-43.98994438599036
 20
153.396595743774
 30
0.0
 11
-43.98994438599036
 21
170.396595743774
 31
0.0
  0
LINE
  5
A9
330
1F
100
AcDbEntity
  8
0
  6
Continuous
 62
     7
100
AcDbLine
 10
-45.98994438599036
 20
187.396595743774
 30
0.0
 11
-43.98994438599036
 21
187.396595743774
 31
0.0
  0
LINE
  5
AA
330
1F
100
AcDbEntity
  8
0
  6
Continuous
 62
     7
100
AcDbLine
 10
-43.98994438599036
 20
187.396595743774
 30
0.0
 11
-41.98994438599036
 21
187.396595743774
 31
0.0
  0
LINE
  5
AB
330
1F
100
AcDbEntity
  8
0
  6
Continuous
 62
     7
100
AcDbLine
 10
-41.98994438599036
 20
183.396595743774
 30
0.0
 11
-43.98994438599036
 21
183.396595743774
 31
0.0
  0
LINE
  5
AC
330
1F
100
AcDbEntity
  8
0
  6
Continuous
 62
     7
100
AcDbLine
 10
-52.98994438599036
 20
187.396595743774
 30
0.0
 11
-52.48994438599036
 21
187.396595743774
 31
0.0
  0
LINE
  5
AD
330
1F
100
AcDbEntity
  8
0
  6
Continuous
 62
     7
100
AcDbLine
 10
-45.98994438599036
 20
187.396595743774
 30
0.0
 11
-47.48994438599036
 21
187.396595743774
 31
0.0
  0
LINE
  5
AE
330
1F
100
AcDbEntity
  8
0
  6
Continuous
 62
     7
100
AcDbLine
 10
-41.98994438599036
 20
187.396595743774
 30
0.0
 11
-41.98994438599036
 21
183.396595743774
 31
0.0
  0
LINE
  5
AF
330
1F
100
AcDbEntity
  8
0
  6
Continuous
 62
     7
100
AcDbLine
 10
-67.48994438599036
 20
177.396595743774
 30
0.0
 11
-70.48994438599036
 21
177.396595743774
 31
0.0
  0
LINE
  5
B0
330
1F
100
AcDbEntity
  8
0
  6
Continuous
 62
     7
100
AcDbLine
 10
-67.48994438599036
 20
187.396595743774
 30
0.0
 11
-67.48994438599036
 21
177.396595743774
 31
0.0
  0
LINE
  5
B1
330
1F
100
AcDbEntity
  8
0
  6
Continuous
 62
     7
100
AcDbLine
 10
-70.48994438599036
 20
177.396595743774
 30
0.0
 11
-70.48994438599036
 21
187.396595743774
 31
0.0
  0
LINE
  5
B2
330
1F
100
AcDbEntity
  8
0
  6
Continuous
 62
     7
100
AcDbLine
 10
-65.48994438599036
 20
169.396595743774
 30
0.0
 11
-65.48994438599038
 21
187.396595743774
 31
0.0
  0
LINE
  5
B3
330
1F
100
AcDbEntity
  8
0
  6
Continuous
 62
     7
100
AcDbLine
 10
-70.48994438599036
 20
187.396595743774
 30
0.0
 11
-67.48994438599036
 21
187.396595743774
 31
0.0
  0
LINE
  5
B4
330
1F
100
AcDbEntity
  8
0
  6
Continuous
 62
     7
100
AcDbLine
 10
-64.98994438599036
 20
187.396595743774
 30
0.0
 11
-61.98994438599036
 21
187.396595743774
 31
0.0
  0
LINE
  5
B5
330
1F
100
AcDbEntity
  8
0
  6
Continuous
 62
     7
100
AcDbLine
 10
-65.48994438599038
 20
187.396595743774
 30
0.0
 11
-67.48994438599036
 21
187.396595743774
 31
0.0
  0
LINE
  5
B6
330
1F
100
AcDbEntity
  8
0
  6
Continuous
 62
     7
100
AcDbLine
 10
-37.52857300073089
 20
263.2390363406558
 30
0.0
 11
-37.52857300073089
 21
251.9807060914581
 31
0.0
  0
LINE
  5
B7
330
1F
100
AcDbEntity
  8
0
  6
Continuous
 62
     7
100
AcDbLine
 10
-50.25649506208876
 20
275.2321624959336
 30
0.0
 11
-48.84228149971565
 21
275.9392692771201
 31
0.0
  0
LINE
  5
B8
330
1F
100
AcDbEntity
  8
0
  6
Continuous
 62
     7
100
AcDbLine
 10
-50.25649506208876
 20
273.9331243902569
 30
0.0
 11
-43.18542725022329
 21
270.3975904843242
 31
0.0
  0
LINE
  5
B9
330
1F
100
AcDbEntity
  8
0
  6
Continuous
 62
     7
100
AcDbLine
 10
-50.25649506208876
 20
275.2321624959336
 30
0.0
 11
-50.25649506208876
 21
273.9331243902569
 31
0.0
  0
LINE
  5
BA
330
1F
100
AcDbEntity
  8
0
  6
Continuous
 62
     7
100
AcDbLine
 10
-48.84228149971565
 20
275.9392692771201
 30
0.0
 11
-48.84228149971565
 21
277.671320084689
 31
0.0
  0
LINE
  5
BB
330
1F
100
AcDbEntity
  8
0
  6
Continuous
 62
     5
100
AcDbLine
 10
-41.4176602972569
 20
264.7505672870266
 30
0.0
 11
-40.98464759536469
 21
264.9670736379727
 31
0.0
  0
LINE
  5
BC
330
1F
100
AcDbEntity
  8
0
  6
Continuous
 62
     7
100
AcDbLine
 10
-49.30190090748693
 20
271.8123452562045
 30
0.0
 11
-49.30190090748693
 21
273.455827312956
 31
0.0
  0
LINE
  5
BD
330
1F
100
AcDbEntity
  8
0
  6
Continuous
 62
     7
100
AcDbLine
 10
-38.23567978191744
 20
270.9538056634168
 30
0.0
 11
-38.23567978191744
 21
269.2217548558479
 31
0.0
  0
LINE
  5
BE
330
1F
100
AcDbEntity
  8
0
  6
Continuous
 62
     7
100
AcDbLine
 10
-47.18058056392727
 20
278.5021705525832
 30
0.0
 11
-48.84228149971565
 21
277.671320084689
 31
0.0
  0
LINE
  5
BF
330
1F
100
AcDbEntity
  8
0
  6
Continuous
 62
     7
100
AcDbLine
 10
-48.84228149971565
 20
277.671320084689
 30
0.0
 11
-36.82146621954433
 21
271.6609124446034
 31
0.0
  0
LINE
  5
C0
330
1F
100
AcDbEntity
  8
0
  6
Continuous
 62
     7
100
AcDbLine
 10
-38.23567978191744
 20
269.2217548558479
 30
0.0
 11
-50.25649506208876
 21
275.2321624959336
 31
0.0
  0
LINE
  5
C1
330
1F
100
AcDbEntity
  8
0
  6
Continuous
 62
     7
100
AcDbLine
 10
-38.23567978191744
 20
270.635968418221
 30
0.0
 11
-48.84228149971565
 21
275.9392692771201
 31
0.0
  0
LINE
  5
C2
330
1F
100
AcDbEntity
  8
0
  6
Continuous
 62
     7
100
AcDbLine
 10
-50.25649506208876
 20
258.344667122137
 30
0.0
 11
-49.82348236019652
 21
258.5611734730831
 31
0.0
  0
LINE
  5
C3
330
1F
100
AcDbEntity
  8
0
  6
Continuous
 62
     7
100
AcDbLine
 10
-50.25649506208876
 20
258.344667122137
 30
0.0
 11
-50.25649506208876
 21
256.6126163145681
 31
0.0
  0
LINE
  5
C4
330
1F
100
AcDbEntity
  8
0
  6
Continuous
 62
     7
100
AcDbLine
 10
-49.30190090748693
 20
254.4918371805157
 30
0.0
 11
-49.30190090748693
 21
256.1353192372672
 31
0.0
  0
LINE
  5
C5
330
1F
100
AcDbEntity
  8
0
  6
Continuous
 62
     7
100
AcDbLine
 10
-50.25649506208879
 20
254.0145401032148
 30
0.0
 11
-49.30190090748693
 21
254.4918371805157
 31
0.0
  0
LINE
  5
C6
330
1F
100
AcDbEntity
  8
0
  6
Continuous
 62
     7
100
AcDbLine
 10
-50.25649506208876
 20
258.7776798240292
 30
0.0
 11
-41.41766029725693
 21
254.3582624416133
 31
0.0
  0
LINE
  5
C7
330
1F
100
AcDbEntity
  8
0
  6
Continuous
 62
     7
100
AcDbLine
 10
-49.30190090748693
 20
254.4918371805157
 30
0.0
 11
-43.18542725022329
 21
251.4336003518839
 31
0.0
  0
LINE
  5
C8
330
1F
100
AcDbEntity
  8
0
  6
Continuous
 62
     7
100
AcDbLine
 10
-50.25649506208879
 20
254.0145401032148
 30
0.0
 11
-50.25649506208876
 21
252.7155019975381
 31
0.0
  0
LINE
  5
C9
330
1F
100
AcDbEntity
  8
0
  6
Continuous
 62
     7
100
AcDbLine
 10
-38.94278656310399
 20
256.1519144877824
 30
0.0
 11
-38.94278656310399
 21
260.4820415067046
 31
0.0
  0
LINE
  5
CA
330
1F
100
AcDbEntity
  8
0
  6
Continuous
 62
     7
100
AcDbLine
 10
-38.89781855840522
 20
254.7361532636601
 30
0.0
 11
-39.85241271300706
 21
254.2588561863591
 31
0.0
  0
LINE
  5
CB
330
1F
100
AcDbEntity
  8
0
  6
Continuous
 62
     7
100
AcDbLine
 10
-37.52857300073089
 20
251.9807060914581
 30
0.0
 11
-50.25649506208876
 21
258.344667122137
 31
0.0
  0
LINE
  5
CC
330
1F
100
AcDbEntity
  8
0
  6
Continuous
 62
     7
100
AcDbLine
 10
-48.84228149971565
 20
251.6905579711558
 30
0.0
 11
-48.84228149971565
 21
252.0083952163516
 31
0.0
  0
LINE
  5
CD
330
1F
100
AcDbEntity
  8
0
  6
Continuous
 62
     7
100
AcDbLine
 10
-43.18542725022329
 20
253.0770824086354
 30
0.0
 11
-43.18542725022329
 21
250.4790061972821
 31
0.0
  0
LINE
  5
CE
330
1F
100
AcDbEntity
  8
0
  6
Continuous
 62
     7
100
AcDbLine
 10
-45.05926022036763
 20
249.7990473314818
 30
0.0
 11
-45.05926022036763
 21
249.0215906785148
 31
0.0
  0
LINE
  5
CF
330
1F
100
AcDbEntity
  8
0
  6
Continuous
 62
     7
100
AcDbLine
 10
-45.05926022036763
 20
249.0215906785148
 30
0.0
 11
-47.88768734511382
 21
250.4358042408878
 31
0.0
  0
LINE
  5
D0
330
1F
100
AcDbEntity
  8
0
  6
Continuous
 62
     7
100
AcDbLine
 10
-37.52857300073089
 20
252.9353002460599
 30
0.0
 11
-40.02964677534521
 21
254.185837133367
 31
0.0
  0
LINE
  5
D1
330
1F
100
AcDbEntity
  8
0
  6
Continuous
 62
     7
100
AcDbLine
 10
-43.18542725022329
 20
250.4790061972821
 30
0.0
 11
-50.25649506208879
 21
254.0145401032148
 31
0.0
  0
LINE
  5
D2
330
1F
100
AcDbEntity
  8
0
  6
Continuous
 62
     7
100
AcDbLine
 10
-50.25649506208876
 20
256.6126163145681
 30
0.0
 11
-43.18542725022329
 21
253.0770824086354
 31
0.0
  0
LINE
  5
D3
330
1F
100
AcDbEntity
  8
0
  6
Continuous
 62
     7
100
AcDbLine
 10
-41.41766029725693
 20
256.9563386529666
 30
0.0
 11
-41.07125013574313
 21
257.1295437337235
 31
0.0
  0
LINE
  5
D4
330
1F
100
AcDbEntity
  8
0
  6
Continuous
 62
     7
100
AcDbLine
 10
-41.06410690666365
 20
261.5427016784844
 30
0.0
 11
-41.06410690666363
 21
257.2125746595622
 31
0.0
  0
LINE
  5
D5
330
1F
100
AcDbEntity
  8
0
  6
Continuous
 62
     7
100
AcDbLine
 10
-50.25649506208876
 20
266.5719084580892
 30
0.0
 11
-41.41766029725693
 21
262.1524910756733
 31
0.0
  0
LINE
  5
D6
330
1F
100
AcDbEntity
  8
0
  6
Continuous
 62
     7
100
AcDbLine
 10
-50.25649506208876
 20
261.3757560353826
 30
0.0
 11
-50.25649506208876
 21
258.7776798240292
 31
0.0
  0
LINE
  5
D7
330
1F
100
AcDbEntity
  8
0
  6
Continuous
 62
     7
100
AcDbLine
 10
-50.25649506208876
 20
269.1699846694425
 30
0.0
 11
-50.25649506208876
 21
266.5719084580892
 31
0.0
  0
LINE
  5
D8
330
1F
100
AcDbEntity
  8
0
  6
Continuous
 62
     7
100
AcDbLine
 10
-49.30190090748693
 20
261.8530531126834
 30
0.0
 11
-49.30190090748693
 21
266.0946113807883
 31
0.0
  0
LINE
  5
D9
330
1F
100
AcDbEntity
  8
0
  6
Continuous
 62
     7
100
AcDbLine
 10
-50.25649506208876
 20
269.1699846694425
 30
0.0
 11
-49.82348236019655
 21
269.3864910203886
 31
0.0
  0
LINE
  5
DA
330
1F
100
AcDbEntity
  8
0
  6
Continuous
 62
     7
100
AcDbLine
 10
-50.25649506208876
 20
271.3350481789036
 30
0.0
 11
-50.25649506208876
 21
269.6029973713347
 31
0.0
  0
LINE
  5
DB
330
1F
100
AcDbEntity
  8
0
  6
Continuous
 62
     7
100
AcDbLine
 10
-50.25649506208876
 20
271.3350481789036
 30
0.0
 11
-49.30190090748693
 21
271.8123452562045
 31
0.0
  0
LINE
  5
DC
330
1F
100
AcDbEntity
  8
0
  6
Continuous
 62
     7
100
AcDbLine
 10
-49.30190090748693
 20
271.8123452562045
 30
0.0
 11
-43.18542725022329
 21
268.7541084275727
 31
0.0
  0
LINE
  5
DD
330
1F
100
AcDbEntity
  8
0
  6
Continuous
 62
     7
100
AcDbLine
 10
-43.18542725022329
 20
267.7995142729708
 30
0.0
 11
-50.25649506208876
 21
271.3350481789036
 31
0.0
  0
LINE
  5
DE
330
1F
100
AcDbEntity
  8
0
  6
Continuous
 62
     7
100
AcDbLine
 10
-41.4176602972569
 20
264.7505672870266
 30
0.0
 11
-50.25649506208876
 21
269.1699846694425
 31
0.0
  0
LINE
  5
DF
330
1F
100
AcDbEntity
  8
0
  6
Continuous
 62
     7
100
AcDbLine
 10
-50.25649506208876
 20
261.3757560353826
 30
0.0
 11
-49.30190090748693
 21
261.8530531126834
 31
0.0
  0
LINE
  5
E0
330
1F
100
AcDbEntity
  8
0
  6
Continuous
 62
     7
100
AcDbLine
 10
-41.41766029725693
 20
257.9109328075685
 30
0.0
 11
-49.30190090748693
 21
261.8530531126834
 31
0.0
  0
LINE
  5
E1
330
1F
100
AcDbEntity
  8
0
  6
Continuous
 62
     7
100
AcDbLine
 10
-41.41766029725693
 20
256.9563386529666
 30
0.0
 11
-50.25649506208876
 21
261.3757560353826
 31
0.0
  0
LINE
  5
E2
330
1F
100
AcDbEntity
  8
0
  6
Continuous
 62
     7
100
AcDbLine
 10
-50.25649506208876
 20
269.6029973713347
 30
0.0
 11
-37.52857300073089
 21
263.2390363406558
 31
0.0
  0
LINE
  5
E3
330
1F
100
AcDbEntity
  8
0
  6
Continuous
 62
     2
100
AcDbLine
 10
-18.43668990869412
 20
247.1818502252462
 30
0.0
 11
-25.5077577205596
 21
250.7173841311789
 31
0.0
  0
LINE
  5
E4
330
1F
100
AcDbEntity
  8
0
  6
Continuous
 62
     2
100
AcDbLine
 10
-17.72958312750757
 20
248.4014290196239
 30
0.0
 11
-25.5077577205596
 21
252.2905163161499
 31
0.0
  0
LINE
  5
E5
330
1F
100
AcDbEntity
  8
0
  6
Continuous
 62
     2
100
AcDbLine
 10
-17.234608380677
 20
248.6489163930392
 30
0.0
 11
-25.5077577205596
 21
252.7854910629805
 31
0.0
  0
LINE
  5
E6
330
1F
100
AcDbEntity
  8
0
  6
Continuous
 62
     2
100
AcDbLine
 10
-18.43668990869412
 20
244.5837740138929
 30
0.0
 11
-23.38643737699994
 21
247.0586477480458
 31
0.0
  0
LINE
  5
E7
330
1F
100
AcDbEntity
  8
0
  6
Continuous
 62
     7
100
AcDbLine
 10
-19.14379668988067
 20
243.3641952195151
 30
0.0
 11
-22.67933059581341
 21
241.5964282665487
 31
0.0
  0
LINE
  5
E8
330
1F
100
AcDbEntity
  8
0
  6
Continuous
 62
     2
100
AcDbLine
 10
-19.14379668988067
 20
243.3641952195151
 30
0.0
 11
-23.38643737699994
 21
245.4855155630748
 31
0.0
  0
LINE
  5
E9
330
1F
100
AcDbEntity
  8
0
  6
Continuous
 62
     7
100
AcDbLine
 10
-24.09354415818649
 20
247.8175247156377
 30
0.0
 11
-24.80065093937304
 21
247.4639713250444
 31
0.0
  0
LINE
  5
EA
330
1F
100
AcDbEntity
  8
0
  6
Continuous
 62
     2
100
AcDbLine
 10
-24.09354415818649
 20
247.8175247156377
 30
0.0
 11
-25.5077577205596
 21
248.5246314968243
 31
0.0
  0
LINE
  5
EB
330
1F
100
AcDbEntity
  8
0
  6
Continuous
 62
     7
100
AcDbLine
 10
-23.38643737699994
 20
242.1089002797399
 30
0.0
 11
-23.38643737699994
 21
247.3050527024466
 31
0.0
  0
LINE
  5
EC
330
1F
100
AcDbEntity
  8
0
  6
Continuous
 62
     5
100
AcDbLine
 10
-22.67933059581341
 20
241.5964282665487
 30
0.0
 11
-23.37215091884096
 21
241.9428384280625
 31
0.0
  0
LINE
  5
ED
330
1F
100
AcDbEntity
  8
0
  6
Continuous
 62
     7
100
AcDbLine
 10
-17.234608380677
 20
248.6489163930392
 30
0.0
 11
-17.72958312750757
 21
248.4014290196239
 31
0.0
  0
LINE
  5
EE
330
1F
100
AcDbEntity
  8
0
  6
Continuous
 62
     7
100
AcDbLine
 10
-18.43668990869412
 20
247.1818502252462
 30
0.0
 11
-18.43668990869412
 21
244.5837740138929
 31
0.0
  0
LINE
  5
EF
330
1F
100
AcDbEntity
  8
0
  6
Continuous
 62
     7
100
AcDbLine
 10
-15.8203948183039
 20
244.1598707515191
 30
0.0
 11
-15.8203948183039
 21
270.1406328650523
 31
0.0
  0
LINE
  5
F0
330
1F
100
AcDbEntity
  8
0
  6
Continuous
 62
     7
100
AcDbLine
 10
-25.5077577205596
 20
247.9764433382356
 30
0.0
 11
-25.5077577205596
 21
260.9668243950022
 31
0.0
  0
LINE
  5
F1
330
1F
100
AcDbEntity
  8
0
  6
Continuous
 62
     7
100
AcDbLine
 10
-26.21486450174615
 20
264.9433980233312
 30
0.0
 11
-26.21486450174615
 21
238.9626359097979
 31
0.0
  0
LINE
  5
F2
330
1F
100
AcDbEntity
  8
0
  6
Continuous
 62
     7
100
AcDbLine
 10
-26.21486450174615
 20
238.9626359097979
 30
0.0
 11
-15.8203948183039
 21
244.1598707515191
 31
0.0
  0
LINE
  5
F3
330
1F
100
AcDbEntity
  8
0
  6
Continuous
 62
     7
100
AcDbLine
 10
-15.8203948183039
 20
270.1406328650523
 30
0.0
 11
-26.21486450174615
 21
264.9433980233312
 31
0.0
  0
LINE
  5
F4
330
1F
100
AcDbEntity
  8
0
  6
Continuous
 62
     7
100
AcDbLine
 10
-40.10951275206179
 20
280.9413281413386
 30
0.0
 11
-42.937939876808
 21
282.3555417037117
 31
0.0
  0
LINE
  5
F5
330
1F
100
AcDbEntity
  8
0
  6
Continuous
 62
     7
100
AcDbLine
 10
-47.18058056392727
 20
280.2342213601521
 30
0.0
 11
-42.937939876808
 21
282.3555417037117
 31
0.0
  0
LINE
  5
F6
330
1F
100
AcDbEntity
  8
0
  6
Continuous
 62
     7
100
AcDbLine
 10
-40.10951275206179
 20
279.2092773337697
 30
0.0
 11
-40.10951275206179
 21
280.9413281413386
 31
0.0
  0
LINE
  5
F7
330
1F
100
AcDbEntity
  8
0
  6
Continuous
 62
     7
100
AcDbLine
 10
-40.10951275206179
 20
280.9413281413386
 30
0.0
 11
-44.35215343918108
 21
278.8200077977789
 31
0.0
  0
LINE
  5
F8
330
1F
100
AcDbEntity
  8
0
  6
Continuous
 62
     7
100
AcDbLine
 10
-47.18058056392727
 20
278.5021705525832
 30
0.0
 11
-47.18058056392727
 21
280.2342213601521
 31
0.0
  0
LINE
  5
F9
330
1F
100
AcDbEntity
  8
0
  6
Continuous
 62
     7
100
AcDbLine
 10
-47.18058056392727
 20
280.2342213601521
 30
0.0
 11
-44.35215343918108
 21
278.8200077977789
 31
0.0
  0
LINE
  5
FA
330
1F
100
AcDbEntity
  8
0
  6
Continuous
 62
     7
100
AcDbLine
 10
-44.35215343918108
 20
277.0879569902101
 30
0.0
 11
-47.18058056392727
 21
278.5021705525832
 31
0.0
  0
LINE
  5
FB
330
1F
100
AcDbEntity
  8
0
  6
Continuous
 62
     7
100
AcDbLine
 10
-40.10951275206179
 20
279.2092773337697
 30
0.0
 11
-44.35215343918108
 21
277.0879569902101
 31
0.0
  0
LINE
  5
FC
330
1F
100
AcDbEntity
  8
0
  6
Continuous
 62
     7
100
AcDbLine
 10
-44.35215343918108
 20
278.8200077977789
 30
0.0
 11
-44.35215343918108
 21
277.0879569902101
 31
0.0
  0
LINE
  5
FD
330
1F
100
AcDbEntity
  8
0
  6
Continuous
 62
     7
100
AcDbLine
 10
-43.18542725022329
 20
270.3975904843242
 30
0.0
 11
-43.18542725022329
 21
267.7995142729708
 31
0.0
  0
LINE
  5
FE
330
1F
100
AcDbEntity
  8
0
  6
Continuous
 62
     7
100
AcDbLine
 10
-36.82146621954433
 20
271.6609124446034
 30
0.0
 11
-38.23567978191744
 21
270.9538056634168
 31
0.0
  0
LINE
  5
FF
330
1F
100
AcDbEntity
  8
0
  6
Continuous
 62
     7
100
AcDbLine
 10
-29.25542366084829
 20
275.4439337239514
 30
0.0
 11
-40.10951275206179
 21
280.8709782695581
 31
0.0
  0
LINE
  5
100
330
1F
100
AcDbEntity
  8
0
  6
Continuous
 62
     7
100
AcDbLine
 10
-23.64633056268656
 20
247.8459265028532
 30
0.0
 11
-25.5077577205596
 21
248.7766400817897
 31
0.0
  0
LINE
  5
101
330
1F
100
AcDbEntity
  8
0
  6
Continuous
 62
     2
100
AcDbLine
 10
-24.80065093937304
 20
247.4639713250444
 30
0.0
 11
-25.49347126240059
 21
247.8103814865582
 31
0.0
  0
LINE
  5
102
330
1F
100
AcDbEntity
  8
0
  6
Continuous
 62
     7
100
AcDbLine
 10
-47.88768734511382
 20
250.4358042408878
 30
0.0
 11
-47.88768734511382
 21
251.2132608938549
 31
0.0
  0
LINE
  5
103
330
1F
100
AcDbEntity
  8
0
  6
Continuous
 62
     7
100
AcDbLine
 10
-45.05926022036763
 20
249.0215906785148
 30
0.0
 11
-44.28180356740057
 21
249.4103190049983
 31
0.0
  0
LINE
  5
104
330
1F
100
AcDbEntity
  8
0
  6
Continuous
 62
     7
100
AcDbLine
 10
-38.23567978191744
 20
246.7050943574525
 30
0.0
 11
-38.23567978191744
 21
244.9730435498836
 31
0.0
  0
LINE
  5
105
330
1F
100
AcDbEntity
  8
0
  6
Continuous
 62
     7
100
AcDbLine
 10
-50.25649506208876
 20
252.7155019975381
 30
0.0
 11
-38.23567978191744
 21
246.7050943574525
 31
0.0
  0
LINE
  5
106
330
1F
100
AcDbEntity
  8
0
  6
Continuous
 62
     7
100
AcDbLine
 10
-38.23567978191744
 20
246.3872571122567
 30
0.0
 11
-48.84228149971565
 21
251.6905579711558
 31
0.0
  0
LINE
  5
107
330
1F
100
AcDbEntity
  8
0
  6
Continuous
 62
     2
100
AcDbLine
 10
-18.08313651810084
 20
267.2772112075849
 30
0.0
 11
-18.94916192188526
 21
267.7102239094771
 31
0.0
  0
LINE
  5
108
330
1F
100
AcDbEntity
  8
0
  6
Continuous
 62
     7
100
AcDbLine
 10
-17.82324333241425
 20
262.4062103882561
 30
0.0
 11
-23.48750269542143
 21
265.2383400697597
 31
0.0
  0
LINE
  5
109
330
1F
100
AcDbEntity
  8
0
  6
Continuous
 62
     7
100
AcDbLine
 10
-17.37602973691429
 20
262.4346121754716
 30
0.0
 11
-17.234608380677
 21
262.5053228535902
 31
0.0
  0
LINE
  5
10A
330
1F
100
AcDbEntity
  8
0
  6
Continuous
 62
     2
100
AcDbLine
 10
-16.52750159949045
 20
261.9928508403991
 30
0.0
 11
-17.39380053849848
 21
262.426000309903
 31
0.0
  0
LINE
  5
10B
330
1F
100
AcDbEntity
  8
0
  6
Continuous
 62
     7
100
AcDbLine
 10
-24.80065093937304
 20
262.1864031893799
 30
0.0
 11
-24.44709754877977
 21
262.3631798846765
 31
0.0
  0
LINE
  5
10C
330
1F
100
AcDbEntity
  8
0
  6
Continuous
 62
     7
100
AcDbLine
 10
-23.73999076759321
 20
263.5827586790543
 30
0.0
 11
-23.73999076759321
 21
264.4487840828387
 31
0.0
  0
LINE
  5
10D
330
1F
100
AcDbEntity
  8
0
  6
Continuous
 62
     7
100
AcDbLine
 10
-23.03288398640666
 20
265.6683628772165
 30
0.0
 11
-18.7902432992874
 21
267.7896832207761
 31
0.0
  0
LINE
  5
10E
330
1F
100
AcDbEntity
  8
0
  6
Continuous
 62
     7
100
AcDbLine
 10
-27.84121009847519
 20
276.1510405051379
 30
0.0
 11
-29.25542366084829
 21
275.4439337239514
 31
0.0
  0
LINE
  5
10F
330
1F
100
AcDbEntity
  8
0
  6
Continuous
 62
     7
100
AcDbLine
 10
-18.08313651810084
 20
267.2772112075849
 30
0.0
 11
-18.08313651810084
 21
262.9470841886627
 31
0.0
  0
LINE
  5
110
330
1F
100
AcDbEntity
  8
0
  6
Continuous
 62
     2
100
AcDbLine
 10
-18.08313651810084
 20
262.9470841886627
 30
0.0
 11
-23.24094908754046
 21
265.5259904733825
 31
0.0
  0
LINE
  5
111
330
1F
100
AcDbEntity
  8
0
  6
Continuous
 62
     7
100
AcDbLine
 10
-16.52750159949045
 20
261.9928508403991
 30
0.0
 11
-16.52750159949045
 21
249.8684951874169
 31
0.0
  0
LINE
  5
112
330
1F
100
AcDbEntity
  8
0
  6
Continuous
 62
     2
100
AcDbLine
 10
-16.52750159949045
 20
249.8684951874169
 30
0.0
 11
-25.5077577205596
 21
254.3586232479515
 31
0.0
  0
LINE
  5
113
330
1F
100
AcDbEntity
  8
0
  6
Continuous
 62
     7
100
AcDbLine
 10
-15.8203948183039
 20
270.1406328650523
 30
0.0
 11
-27.84121009847519
 21
276.1510405051379
 31
0.0
  0
LINE
  5
114
330
1F
100
AcDbEntity
  8
0
  6
Continuous
 62
     7
100
AcDbLine
 10
-37.98819240850216
 20
256.6292115650833
 30
0.0
 11
-37.98819240850216
 21
260.9593385840055
 31
0.0
  0
LINE
  5
115
330
1F
100
AcDbEntity
  8
0
  6
Continuous
 62
     7
100
AcDbLine
 10
-26.21486450174615
 20
264.9433980233312
 30
0.0
 11
-38.23567978191744
 21
270.9538056634168
 31
0.0
  0
LINE
  5
116
330
1F
100
AcDbEntity
  8
0
  6
Continuous
 62
     7
100
AcDbLine
 10
-26.21486450174615
 20
238.9626359097979
 30
0.0
 11
-38.23567978191744
 21
244.9730435498836
 31
0.0
  0
LINE
  5
117
330
1F
100
AcDbEntity
  8
0
  6
Continuous
 62
     7
100
AcDbLine
 10
-147.909945026655
 20
83.2677879224406
 30
0.0
 11
-149.909945026655
 21
83.2677879224406
 31
0.0
  0
LINE
  5
118
330
1F
100
AcDbEntity
  8
0
  6
Continuous
 62
     7
100
AcDbLine
 10
-149.909945026655
 20
85.2677879224406
 30
0.0
 11
-147.909945026655
 21
85.2677879224406
 31
0.0
  0
LINE
  5
119
330
1F
100
AcDbEntity
  8
0
  6
Continuous
 62
     7
100
AcDbLine
 10
-137.209945026655
 20
85.2677879224406
 30
0.0
 11
-135.209945026655
 21
85.2677879224406
 31
0.0
  0
LINE
  5
11A
330
1F
100
AcDbEntity
  8
0
  6
Continuous
 62
     7
100
AcDbLine
 10
-149.909945026655
 20
83.2677879224406
 30
0.0
 11
-149.909945026655
 21
85.2677879224406
 31
0.0
  0
LINE
  5
11B
330
1F
100
AcDbEntity
  8
0
  6
Continuous
 62
     7
100
AcDbLine
 10
-147.7919958342239
 20
101.2668260281173
 30
0.0
 11
-148.1600298229737
 21
101.9042795955443
 31
0.0
  0
LINE
  5
11C
330
1F
100
AcDbEntity
  8
0
  6
Continuous
 62
     7
100
AcDbLine
 10
-145.559945026655
 20
83.2677879224406
 30
0.0
 11
-147.909945026655
 21
83.2677879224406
 31
0.0
  0
LINE
  5
11D
330
1F
100
AcDbEntity
  8
0
  6
Continuous
 62
     7
100
AcDbLine
 10
-147.909945026655
 20
113.2677879224406
 30
0.0
 11
-147.909945026655
 21
111.2677879224406
 31
0.0
  0
LINE
  5
11E
330
1F
100
AcDbEntity
  8
0
  6
Continuous
 62
     7
100
AcDbLine
 10
-147.909945026655
 20
113.2677879224406
 30
0.0
 11
-146.559945026655
 21
113.2677879224406
 31
0.0
  0
LINE
  5
11F
330
1F
100
AcDbEntity
  8
0
  6
Continuous
 62
     7
100
AcDbLine
 10
-147.909945026655
 20
85.2677879224406
 30
0.0
 11
-147.909945026655
 21
83.2677879224406
 31
0.0
  0
LINE
  5
120
330
1F
100
AcDbEntity
  8
0
  6
Continuous
 62
     7
100
AcDbLine
 10
-146.559945026655
 20
115.2677879224406
 30
0.0
 11
-146.559945026655
 21
113.2677879224406
 31
0.0
  0
LINE
  5
121
330
1F
100
AcDbEntity
  8
0
  6
Continuous
 62
     7
100
AcDbLine
 10
-138.559945026655
 20
113.2677879224406
 30
0.0
 11
-138.559945026655
 21
115.2677879224406
 31
0.0
  0
LINE
  5
122
330
1F
100
AcDbEntity
  8
0
  6
Continuous
 62
     7
100
AcDbLine
 10
-138.559945026655
 20
113.2677879224406
 30
0.0
 11
-137.209945026655
 21
113.2677879224406
 31
0.0
  0
LINE
  5
123
330
1F
100
AcDbEntity
  8
0
  6
Continuous
 62
     7
100
AcDbLine
 10
-137.209945026655
 20
113.2677879224406
 30
0.0
 11
-135.209945026655
 21
113.2677879224406
 31
0.0
  0
LINE
  5
124
330
1F
100
AcDbEntity
  8
0
  6
Continuous
 62
     7
100
AcDbLine
 10
-135.209945026655
 20
113.2677879224406
 30
0.0
 11
-135.209945026655
 21
111.2677879224406
 31
0.0
  0
LINE
  5
125
330
1F
100
AcDbEntity
  8
0
  6
Continuous
 62
     7
100
AcDbLine
 10
-137.209945026655
 20
111.2677879224406
 30
0.0
 11
-137.209945026655
 21
113.2677879224406
 31
0.0
  0
LINE
  5
126
330
1F
100
AcDbEntity
  8
0
  6
Continuous
 62
     7
100
AcDbLine
 10
-135.209945026655
 20
111.2677879224406
 30
0.0
 11
-137.209945026655
 21
111.2677879224406
 31
0.0
  0
LINE
  5
127
330
1F
100
AcDbEntity
  8
0
  6
Continuous
 62
     7
100
AcDbLine
 10
-135.209945026655
 20
111.2677879224406
 30
0.0
 11
-135.209945026655
 21
109.7677879224406
 31
0.0
  0
LINE
  5
128
330
1F
100
AcDbEntity
  8
0
  6
Continuous
 62
     7
100
AcDbLine
 10
-135.8289999041586
 20
101.767787894863
 30
0.0
 11
-136.3732072293411
 21
101.767787894863
 31
0.0
  0
LINE
  5
129
330
1F
100
AcDbEntity
  8
0
  6
Continuous
 62
     7
100
AcDbLine
 10
-135.6979023412295
 20
94.24492206274691
 30
0.0
 11
-135.8320486846919
 21
94.21290986714796
 31
0.0
  0
LINE
  5
12A
330
1F
100
AcDbEntity
  8
0
  6
Continuous
 62
     7
100
AcDbLine
 10
-135.209945026655
 20
104.7677879224406
 30
0.0
 11
-135.209945026655
 21
104.2677879224406
 31
0.0
  0
LINE
  5
12B
330
1F
100
AcDbEntity
  8
0
  6
Continuous
 62
     7
100
AcDbLine
 10
-135.209945026655
 20
101.2677879224406
 30
0.0
 11
-135.209945026655
 21
95.2677879224406
 31
0.0
  0
LINE
  5
12C
330
1F
100
AcDbEntity
  8
0
  6
Continuous
 62
     7
100
AcDbLine
 10
-135.209945026655
 20
104.2677879224406
 30
0.0
 11
-135.209945026655
 21
101.2677879224406
 31
0.0
  0
LINE
  5
12D
330
1F
100
AcDbEntity
  8
0
  6
Continuous
 62
     7
100
AcDbLine
 10
-135.209945026655
 20
108.7677879224406
 30
0.0
 11
-135.209945026655
 21
107.7677879224406
 31
0.0
  0
LINE
  5
12E
330
1F
100
AcDbEntity
  8
0
  6
Continuous
 62
     7
100
AcDbLine
 10
-135.8488169776246
 20
102.8257147398956
 30
0.0
 11
-135.7222925854954
 21
102.7952269345632
 31
0.0
  0
LINE
  5
12F
330
1F
100
AcDbEntity
  8
0
  6
Continuous
 62
     7
100
AcDbLine
 10
-135.8457681970914
 20
93.33028790277636
 30
0.0
 11
-135.7116218536291
 21
93.28608058504447
 31
0.0
  0
LINE
  5
130
330
1F
100
AcDbEntity
  8
0
  6
Continuous
 62
     7
100
AcDbLine
 10
-135.6979023412295
 20
103.2174830384163
 30
0.0
 11
-135.839670636025
 21
103.1961415746837
 31
0.0
  0
LINE
  5
131
330
1F
100
AcDbEntity
  8
0
  6
Continuous
 62
     7
100
AcDbLine
 10
-135.7222925854954
 20
102.7952269345632
 30
0.0
 11
-135.8289999041586
 21
101.767787894863
 31
0.0
  0
LINE
  5
132
330
1F
100
AcDbEntity
  8
0
  6
Continuous
 62
     7
100
AcDbLine
 10
-136.3732072293411
 20
101.767787894863
 30
0.0
 11
-136.3732072293411
 21
102.002543995922
 31
0.0
  0
LINE
  5
133
330
1F
100
AcDbEntity
  8
0
  6
Continuous
 62
     7
100
AcDbLine
 10
-136.3732072293411
 20
102.002543995922
 30
0.0
 11
-135.9357072228219
 21
102.002543995922
 31
0.0
  0
LINE
  5
134
330
1F
100
AcDbEntity
  8
0
  6
Continuous
 62
     7
100
AcDbLine
 10
-135.9357072228219
 20
102.002543995922
 30
0.0
 11
-135.8777803926904
 21
102.5391293697715
 31
0.0
  0
LINE
  5
135
330
1F
100
AcDbEntity
  8
0
  6
Continuous
 62
     7
100
AcDbLine
 10
-135.963146247621
 20
93.82723912969367
 30
0.0
 11
-135.9783901502871
 21
93.6123001021006
 31
0.0
  0
LINE
  5
136
330
1F
100
AcDbEntity
  8
0
  6
Continuous
 62
     7
100
AcDbLine
 10
-136.559945026655
 20
104.2677879224406
 30
0.0
 11
-136.559945026655
 21
104.7677879224406
 31
0.0
  0
LINE
  5
137
330
1F
100
AcDbEntity
  8
0
  6
Continuous
 62
     7
100
AcDbLine
 10
-136.559945026655
 20
95.2677879224406
 30
0.0
 11
-136.559945026655
 21
101.2677879224406
 31
0.0
  0
LINE
  5
138
330
1F
100
AcDbEntity
  8
0
  6
Continuous
 62
     7
100
AcDbLine
 10
-139.1171096645493
 20
83.76778789439446
 30
0.0
 11
-139.2039999097465
 21
83.76778789439446
 31
0.0
  0
LINE
  5
139
330
1F
100
AcDbEntity
  8
0
  6
Continuous
 62
     7
100
AcDbLine
 10
-138.8000364890929
 20
84.50711717370403
 30
0.0
 11
-138.8000364890929
 21
84.26931229211168
 31
0.0
  0
LINE
  5
13A
330
1F
100
AcDbEntity
  8
0
  6
Continuous
 62
     7
100
AcDbLine
 10
-139.0698535662842
 20
85.77540987552986
 30
0.0
 11
-139.0698535662842
 21
84.21138546198016
 31
0.0
  0
LINE
  5
13B
330
1F
100
AcDbEntity
  8
0
  6
Continuous
 62
     7
100
AcDbLine
 10
-136.559945026655
 20
91.7677879224406
 30
0.0
 11
-136.559945026655
 21
92.2677879224406
 31
0.0
  0
LINE
  5
13C
330
1F
100
AcDbEntity
  8
0
  6
Continuous
 62
     7
100
AcDbLine
 10
-139.2039999097465
 20
85.77540987552986
 30
0.0
 11
-139.0698535662842
 21
85.77540987552986
 31
0.0
  0
LINE
  5
13D
330
1F
100
AcDbEntity
  8
0
  6
Continuous
 62
     7
100
AcDbLine
 10
-139.559945026655
 20
81.2677879224406
 30
0.0
 11
-139.559945026655
 21
83.2677879224406
 31
0.0
  0
LINE
  5
13E
330
1F
100
AcDbEntity
  8
0
  6
Continuous
 62
     7
100
AcDbLine
 10
-139.2039999097465
 20
83.76778789439446
 30
0.0
 11
-139.2039999097465
 21
85.77540987552986
 31
0.0
  0
LINE
  5
13F
330
1F
100
AcDbEntity
  8
0
  6
Continuous
 62
     7
100
AcDbLine
 10
-137.3278942190861
 20
95.26874981676393
 30
0.0
 11
-136.9598602303362
 21
94.6312962493369
 31
0.0
  0
LINE
  5
140
330
1F
100
AcDbEntity
  8
0
  6
Continuous
 62
     7
100
AcDbLine
 10
-137.3278942190861
 20
102.968749816764
 30
0.0
 11
-136.9598602303362
 21
102.3312962493369
 31
0.0
  0
LINE
  5
141
330
1F
100
AcDbEntity
  8
0
  6
Continuous
 62
     7
100
AcDbLine
 10
-135.209945026655
 20
95.2677879224406
 30
0.0
 11
-135.209945026655
 21
92.2677879224406
 31
0.0
  0
LINE
  5
142
330
1F
100
AcDbEntity
  8
0
  6
Continuous
 62
     7
100
AcDbLine
 10
-135.209945026655
 20
92.2677879224406
 30
0.0
 11
-135.209945026655
 21
91.7677879224406
 31
0.0
  0
LINE
  5
143
330
1F
100
AcDbEntity
  8
0
  6
Continuous
 62
     7
100
AcDbLine
 10
-147.7919958342239
 20
93.56682602811729
 30
0.0
 11
-148.1600298229737
 21
94.20427959554432
 31
0.0
  0
LINE
  5
144
330
1F
100
AcDbEntity
  8
0
  6
Continuous
 62
     7
100
AcDbLine
 10
-135.209945026655
 20
89.7677879224406
 30
0.0
 11
-134.209945026655
 21
89.7677879224406
 31
0.0
  0
LINE
  5
145
330
1F
100
AcDbEntity
  8
0
  6
Continuous
 62
     7
100
AcDbLine
 10
-135.209945026655
 20
88.7677879224406
 30
0.0
 11
-134.209945026655
 21
88.7677879224406
 31
0.0
  0
LINE
  5
146
330
1F
100
AcDbEntity
  8
0
  6
Continuous
 62
     7
100
AcDbLine
 10
-149.909945026655
 20
89.7677879224406
 30
0.0
 11
-148.559945026655
 21
89.7677879224406
 31
0.0
  0
LINE
  5
147
330
1F
100
AcDbEntity
  8
0
  6
Continuous
 62
     7
100
AcDbLine
 10
-134.209945026655
 20
88.7677879224406
 30
0.0
 11
-134.209945026655
 21
89.7677879224406
 31
0.0
  0
LINE
  5
148
330
1F
100
AcDbEntity
  8
0
  6
Continuous
 62
     7
100
AcDbLine
 10
-134.209945026655
 20
108.7677879224406
 30
0.0
 11
-134.209945026655
 21
109.7677879224406
 31
0.0
  0
LINE
  5
149
330
1F
100
AcDbEntity
  8
0
  6
Continuous
 62
     7
100
AcDbLine
 10
-135.209945026655
 20
109.7677879224406
 30
0.0
 11
-134.209945026655
 21
109.7677879224406
 31
0.0
  0
LINE
  5
14A
330
1F
100
AcDbEntity
  8
0
  6
Continuous
 62
     7
100
AcDbLine
 10
-135.209945026655
 20
108.7677879224406
 30
0.0
 11
-134.209945026655
 21
108.7677879224406
 31
0.0
  0
LINE
  5
14B
330
1F
100
AcDbEntity
  8
0
  6
Continuous
 62
     7
100
AcDbLine
 10
-135.209945026655
 20
107.7677879224406
 30
0.0
 11
-134.209945026655
 21
107.7677879224406
 31
0.0
  0
LINE
  5
14C
330
1F
100
AcDbEntity
  8
0
  6
Continuous
 62
     7
100
AcDbLine
 10
-135.209945026655
 20
104.2677879224406
 30
0.0
 11
-136.559945026655
 21
104.2677879224406
 31
0.0
  0
LINE
  5
14D
330
1F
100
AcDbEntity
  8
0
  6
Continuous
 62
     7
100
AcDbLine
 10
-135.209945026655
 20
95.2677879224406
 30
0.0
 11
-136.559945026655
 21
95.2677879224406
 31
0.0
  0
LINE
  5
14E
330
1F
100
AcDbEntity
  8
0
  6
Continuous
 62
     7
100
AcDbLine
 10
-135.209945026655
 20
91.7677879224406
 30
0.0
 11
-136.559945026655
 21
91.7677879224406
 31
0.0
  0
LINE
  5
14F
330
1F
100
AcDbEntity
  8
0
  6
Continuous
 62
     7
100
AcDbLine
 10
-137.209945026655
 20
83.2677879224406
 30
0.0
 11
-139.559945026655
 21
83.2677879224406
 31
0.0
  0
LINE
  5
150
330
1F
100
AcDbEntity
  8
0
  6
Continuous
 62
     7
100
AcDbLine
 10
-137.209945026655
 20
83.2677879224406
 30
0.0
 11
-137.209945026655
 21
85.2677879224406
 31
0.0
  0
LINE
  5
151
330
1F
100
AcDbEntity
  8
0
  6
Continuous
 62
     7
100
AcDbLine
 10
-135.209945026655
 20
86.7677879224406
 30
0.0
 11
-135.209945026655
 21
85.2677879224406
 31
0.0
  0
LINE
  5
152
330
1F
100
AcDbEntity
  8
0
  6
Continuous
 62
     7
100
AcDbLine
 10
-135.209945026655
 20
88.7677879224406
 30
0.0
 11
-135.209945026655
 21
87.7677879224406
 31
0.0
  0
LINE
  5
153
330
1F
100
AcDbEntity
  8
0
  6
Continuous
 62
     7
100
AcDbLine
 10
-135.209945026655
 20
91.7677879224406
 30
0.0
 11
-135.209945026655
 21
89.7677879224406
 31
0.0
  0
LINE
  5
154
330
1F
100
AcDbEntity
  8
0
  6
Continuous
 62
     7
100
AcDbLine
 10
-136.559945026655
 20
92.2677879224406
 30
0.0
 11
-135.209945026655
 21
92.2677879224406
 31
0.0
  0
LINE
  5
155
330
1F
100
AcDbEntity
  8
0
  6
Continuous
 62
     7
100
AcDbLine
 10
-136.559945026655
 20
101.2677879224406
 30
0.0
 11
-135.209945026655
 21
101.2677879224406
 31
0.0
  0
LINE
  5
156
330
1F
100
AcDbEntity
  8
0
  6
Continuous
 62
     7
100
AcDbLine
 10
-136.559945026655
 20
104.7677879224406
 30
0.0
 11
-135.209945026655
 21
104.7677879224406
 31
0.0
  0
LINE
  5
157
330
1F
100
AcDbEntity
  8
0
  6
Continuous
 62
     7
100
AcDbLine
 10
-135.209945026655
 20
106.7677879224406
 30
0.0
 11
-135.209945026655
 21
104.7677879224406
 31
0.0
  0
LINE
  5
158
330
1F
100
AcDbEntity
  8
0
  6
Continuous
 62
     7
100
AcDbLine
 10
-135.209945026655
 20
106.7677879224406
 30
0.0
 11
-134.209945026655
 21
106.7677879224406
 31
0.0
  0
LINE
  5
159
330
1F
100
AcDbEntity
  8
0
  6
Continuous
 62
     7
100
AcDbLine
 10
-134.209945026655
 20
106.7677879224406
 30
0.0
 11
-134.209945026655
 21
107.7677879224406
 31
0.0
  0
LINE
  5
15A
330
1F
100
AcDbEntity
  8
0
  6
Continuous
 62
     7
100
AcDbLine
 10
-135.209945026655
 20
83.2677879224406
 30
0.0
 11
-137.209945026655
 21
83.2677879224406
 31
0.0
  0
LINE
  5
15B
330
1F
100
AcDbEntity
  8
0
  6
Continuous
 62
     7
100
AcDbLine
 10
-135.209945026655
 20
85.2677879224406
 30
0.0
 11
-135.209945026655
 21
83.2677879224406
 31
0.0
  0
LINE
  5
15C
330
1F
100
AcDbEntity
  8
0
  6
Continuous
 62
     7
100
AcDbLine
 10
-149.4113169860065
 20
103.0635196211259
 30
0.0
 11
-149.4113169860065
 21
103.2891293805853
 31
0.0
  0
LINE
  5
15D
330
1F
100
AcDbEntity
  8
0
  6
Continuous
 62
     7
100
AcDbLine
 10
-149.4113169860065
 20
103.2891293805853
 30
0.0
 11
-149.2634511301446
 21
103.2891293805853
 31
0.0
  0
LINE
  5
15E
330
1F
100
AcDbEntity
  8
0
  6
Continuous
 62
     7
100
AcDbLine
 10
-149.2634511301446
 20
103.0635196211259
 30
0.0
 11
-149.4113169860065
 21
103.0635196211259
 31
0.0
  0
LINE
  5
15F
330
1F
100
AcDbEntity
  8
0
  6
Continuous
 62
     7
100
AcDbLine
 10
-149.1293047866823
 20
103.0635196211259
 30
0.0
 11
-149.1293047866823
 21
102.1610805832883
 31
0.0
  0
LINE
  5
160
330
1F
100
AcDbEntity
  8
0
  6
Continuous
 62
     7
100
AcDbLine
 10
-148.7847925864267
 20
103.0635196211259
 30
0.0
 11
-149.1293047866823
 21
103.0635196211259
 31
0.0
  0
LINE
  5
161
330
1F
100
AcDbEntity
  8
0
  6
Continuous
 62
     7
100
AcDbLine
 10
-149.1536950309482
 20
101.7677878945009
 30
0.0
 11
-149.2634511301446
 21
101.7677878945009
 31
0.0
  0
LINE
  5
162
330
1F
100
AcDbEntity
  8
0
  6
Continuous
 62
     7
100
AcDbLine
 10
-149.2634511301446
 20
103.2891293805853
 30
0.0
 11
-149.2634511301446
 21
103.7677879243033
 31
0.0
  0
LINE
  5
163
330
1F
100
AcDbEntity
  8
0
  6
Continuous
 62
     7
100
AcDbLine
 10
-149.1293047866823
 20
103.2891293805853
 30
0.0
 11
-148.652170633231
 21
103.2891293805853
 31
0.0
  0
LINE
  5
164
330
1F
100
AcDbEntity
  8
0
  6
Continuous
 62
     7
100
AcDbLine
 10
-148.559945026655
 20
104.7677879224406
 30
0.0
 11
-148.559945026655
 21
104.2677879224406
 31
0.0
  0
LINE
  5
165
330
1F
100
AcDbEntity
  8
0
  6
Continuous
 62
     7
100
AcDbLine
 10
-149.2634511301446
 20
103.7677879243033
 30
0.0
 11
-149.1293047866823
 21
103.7677879243033
 31
0.0
  0
LINE
  5
166
330
1F
100
AcDbEntity
  8
0
  6
Continuous
 62
     7
100
AcDbLine
 10
-149.1293047866823
 20
103.7677879243033
 30
0.0
 11
-149.1293047866823
 21
103.2891293805853
 31
0.0
  0
LINE
  5
167
330
1F
100
AcDbEntity
  8
0
  6
Continuous
 62
     7
100
AcDbLine
 10
-149.2634511301446
 20
101.7677878945009
 30
0.0
 11
-149.2634511301446
 21
103.0635196211259
 31
0.0
  0
LINE
  5
168
330
1F
100
AcDbEntity
  8
0
  6
Continuous
 62
     7
100
AcDbLine
 10
-149.1293047866823
 20
102.1610805832883
 30
0.0
 11
-148.7847925864267
 21
103.0635196211259
 31
0.0
  0
LINE
  5
169
330
1F
100
AcDbEntity
  8
0
  6
Continuous
 62
     7
100
AcDbLine
 10
-148.559945026655
 20
101.2677879224406
 30
0.0
 11
-148.559945026655
 21
95.2677879224406
 31
0.0
  0
LINE
  5
16A
330
1F
100
AcDbEntity
  8
0
  6
Continuous
 62
     7
100
AcDbLine
 10
-149.4052194249401
 20
94.77540987552986
 30
0.0
 11
-148.6780852677635
 21
94.77540987552986
 31
0.0
  0
LINE
  5
16B
330
1F
100
AcDbEntity
  8
0
  6
Continuous
 62
     7
100
AcDbLine
 10
-148.8427194165582
 20
93.37144643997503
 30
0.0
 11
-148.703999902296
 21
93.34553180544252
 31
0.0
  0
LINE
  5
16C
330
1F
100
AcDbEntity
  8
0
  6
Continuous
 62
     7
100
AcDbLine
 10
-149.4052194249401
 20
94.53912938420414
 30
0.0
 11
-149.4052194249401
 21
94.77540987552986
 31
0.0
  0
LINE
  5
16D
330
1F
100
AcDbEntity
  8
0
  6
Continuous
 62
     7
100
AcDbLine
 10
-148.559945026655
 20
92.2677879224406
 30
0.0
 11
-148.559945026655
 21
91.7677879224406
 31
0.0
  0
LINE
  5
16E
330
1F
100
AcDbEntity
  8
0
  6
Continuous
 62
     7
100
AcDbLine
 10
-148.559945026655
 20
109.7677879224406
 30
0.0
 11
-148.559945026655
 21
106.7677879224406
 31
0.0
  0
LINE
  5
16F
330
1F
100
AcDbEntity
  8
0
  6
Continuous
 62
     7
100
AcDbLine
 10
-148.652170633231
 20
103.2891293805853
 30
0.0
 11
-148.652170633231
 21
103.0635196211259
 31
0.0
  0
LINE
  5
170
330
1F
100
AcDbEntity
  8
0
  6
Continuous
 62
     7
100
AcDbLine
 10
-148.867109660824
 20
94.53912938420414
 30
0.0
 11
-149.4052194249401
 21
94.53912938420414
 31
0.0
  0
LINE
  5
171
330
1F
100
AcDbEntity
  8
0
  6
Continuous
 62
     7
100
AcDbLine
 10
-147.909945026655
 20
111.2677879224406
 30
0.0
 11
-149.909945026655
 21
111.2677879224406
 31
0.0
  0
LINE
  5
172
330
1F
100
AcDbEntity
  8
0
  6
Continuous
 62
     7
100
AcDbLine
 10
-148.559945026655
 20
89.7677879224406
 30
0.0
 11
-148.559945026655
 21
86.7677879224406
 31
0.0
  0
LINE
  5
173
330
1F
100
AcDbEntity
  8
0
  6
Continuous
 62
     7
100
AcDbLine
 10
-148.652170633231
 20
103.0635196211259
 30
0.0
 11
-149.1536950309482
 21
101.7677878945009
 31
0.0
  0
LINE
  5
174
330
1F
100
AcDbEntity
  8
0
  6
Continuous
 62
     7
100
AcDbLine
 10
-149.909945026655
 20
113.2677879224406
 30
0.0
 11
-147.909945026655
 21
113.2677879224406
 31
0.0
  0
LINE
  5
175
330
1F
100
AcDbEntity
  8
0
  6
Continuous
 62
     7
100
AcDbLine
 10
-149.909945026655
 20
101.2677879224406
 30
0.0
 11
-148.559945026655
 21
101.2677879224406
 31
0.0
  0
LINE
  5
176
330
1F
100
AcDbEntity
  8
0
  6
Continuous
 62
     7
100
AcDbLine
 10
-148.559945026655
 20
91.7677879224406
 30
0.0
 11
-149.909945026655
 21
91.7677879224406
 31
0.0
  0
LINE
  5
177
330
1F
100
AcDbEntity
  8
0
  6
Continuous
 62
     7
100
AcDbLine
 10
-149.909945026655
 20
92.2677879224406
 30
0.0
 11
-148.559945026655
 21
92.2677879224406
 31
0.0
  0
LINE
  5
178
330
1F
100
AcDbEntity
  8
0
  6
Continuous
 62
     7
100
AcDbLine
 10
-148.559945026655
 20
95.2677879224406
 30
0.0
 11
-149.909945026655
 21
95.2677879224406
 31
0.0
  0
LINE
  5
179
330
1F
100
AcDbEntity
  8
0
  6
Continuous
 62
     7
100
AcDbLine
 10
-148.559945026655
 20
104.2677879224406
 30
0.0
 11
-149.909945026655
 21
104.2677879224406
 31
0.0
  0
LINE
  5
17A
330
1F
100
AcDbEntity
  8
0
  6
Continuous
 62
     7
100
AcDbLine
 10
-149.909945026655
 20
104.7677879224406
 30
0.0
 11
-148.559945026655
 21
104.7677879224406
 31
0.0
  0
LINE
  5
17B
330
1F
100
AcDbEntity
  8
0
  6
Continuous
 62
     7
100
AcDbLine
 10
-149.909945026655
 20
109.7677879224406
 30
0.0
 11
-148.559945026655
 21
109.7677879224406
 31
0.0
  0
LINE
  5
17C
330
1F
100
AcDbEntity
  8
0
  6
Continuous
 62
     7
100
AcDbLine
 10
-148.559945026655
 20
106.7677879224406
 30
0.0
 11
-149.909945026655
 21
106.7677879224406
 31
0.0
  0
LINE
  5
17D
330
1F
100
AcDbEntity
  8
0
  6
Continuous
 62
     7
100
AcDbLine
 10
-149.909945026655
 20
89.7677879224406
 30
0.0
 11
-149.909945026655
 21
91.7677879224406
 31
0.0
  0
LINE
  5
17E
330
1F
100
AcDbEntity
  8
0
  6
Continuous
 62
     7
100
AcDbLine
 10
-149.909945026655
 20
91.7677879224406
 30
0.0
 11
-149.909945026655
 21
92.2677879224406
 31
0.0
  0
LINE
  5
17F
330
1F
100
AcDbEntity
  8
0
  6
Continuous
 62
     7
100
AcDbLine
 10
-149.909945026655
 20
95.2677879224406
 30
0.0
 11
-149.909945026655
 21
101.2677879224406
 31
0.0
  0
LINE
  5
180
330
1F
100
AcDbEntity
  8
0
  6
Continuous
 62
     7
100
AcDbLine
 10
-149.909945026655
 20
92.2677879224406
 30
0.0
 11
-149.909945026655
 21
95.2677879224406
 31
0.0
  0
LINE
  5
181
330
1F
100
AcDbEntity
  8
0
  6
Continuous
 62
     7
100
AcDbLine
 10
-149.909945026655
 20
106.7677879224406
 30
0.0
 11
-149.909945026655
 21
109.7677879224406
 31
0.0
  0
LINE
  5
182
330
1F
100
AcDbEntity
  8
0
  6
Continuous
 62
     7
100
AcDbLine
 10
-149.909945026655
 20
86.7677879224406
 30
0.0
 11
-149.909945026655
 21
89.7677879224406
 31
0.0
  0
LINE
  5
183
330
1F
100
AcDbEntity
  8
0
  6
Continuous
 62
     7
100
AcDbLine
 10
-149.909945026655
 20
104.2677879224406
 30
0.0
 11
-149.909945026655
 21
104.7677879224406
 31
0.0
  0
LINE
  5
184
330
1F
100
AcDbEntity
  8
0
  6
Continuous
 62
     7
100
AcDbLine
 10
-149.909945026655
 20
104.7677879224406
 30
0.0
 11
-149.909945026655
 21
106.7677879224406
 31
0.0
  0
LINE
  5
185
330
1F
100
AcDbEntity
  8
0
  6
Continuous
 62
     7
100
AcDbLine
 10
-149.909945026655
 20
109.7677879224406
 30
0.0
 11
-149.909945026655
 21
111.2677879224406
 31
0.0
  0
LINE
  5
186
330
1F
100
AcDbEntity
  8
0
  6
Continuous
 62
     7
100
AcDbLine
 10
-149.909945026655
 20
85.2677879224406
 30
0.0
 11
-149.909945026655
 21
86.7677879224406
 31
0.0
  0
LINE
  5
187
330
1F
100
AcDbEntity
  8
0
  6
Continuous
 62
     7
100
AcDbLine
 10
-149.909945026655
 20
101.2677879224406
 30
0.0
 11
-149.909945026655
 21
104.2677879224406
 31
0.0
  0
LINE
  5
188
330
1F
100
AcDbEntity
  8
0
  6
Continuous
 62
     7
100
AcDbLine
 10
-149.909945026655
 20
111.2677879224406
 30
0.0
 11
-149.909945026655
 21
113.2677879224406
 31
0.0
  0
LINE
  5
189
330
1F
100
AcDbEntity
  8
0
  6
Continuous
 62
     7
100
AcDbLine
 10
-135.209945026655
 20
87.7677879224406
 30
0.0
 11
-134.209945026655
 21
87.7677879224406
 31
0.0
  0
LINE
  5
18A
330
1F
100
AcDbEntity
  8
0
  6
Continuous
 62
     7
100
AcDbLine
 10
-148.559945026655
 20
86.7677879224406
 30
0.0
 11
-149.909945026655
 21
86.7677879224406
 31
0.0
  0
LINE
  5
18B
330
1F
100
AcDbEntity
  8
0
  6
Continuous
 62
     7
100
AcDbLine
 10
-135.209945026655
 20
86.7677879224406
 30
0.0
 11
-134.209945026655
 21
86.7677879224406
 31
0.0
  0
LINE
  5
18C
330
1F
100
AcDbEntity
  8
0
  6
Continuous
 62
     7
100
AcDbLine
 10
-134.209945026655
 20
86.7677879224406
 30
0.0
 11
-134.209945026655
 21
87.7677879224406
 31
0.0
  0
LINE
  5
18D
330
1F
100
AcDbEntity
  8
0
  6
Continuous
 62
     7
100
AcDbLine
 10
-144.6959282078361
 20
96.20427959554432
 30
0.0
 11
-144.3278942190862
 21
95.56682602811723
 31
0.0
  0
LINE
  5
18E
330
1F
100
AcDbEntity
  8
0
  6
Continuous
 62
     7
100
AcDbLine
 10
-145.559945026655
 20
83.2677879224406
 30
0.0
 11
-145.559945026655
 21
81.2677879224406
 31
0.0
  0
LINE
  5
18F
330
1F
100
AcDbEntity
  8
0
  6
Continuous
 62
     7
100
AcDbLine
 10
-145.559945026655
 20
81.2677879224406
 30
0.0
 11
-139.559945026655
 21
81.2677879224406
 31
0.0
  0
LINE
  5
190
330
1F
100
AcDbEntity
  8
0
  6
Continuous
 62
     7
100
AcDbLine
 10
-144.6959282078361
 20
103.9042795955443
 30
0.0
 11
-144.3278942190862
 21
103.2668260281173
 31
0.0
  0
LINE
  5
191
330
1F
100
AcDbEntity
  8
0
  6
Continuous
 62
     7
100
AcDbLine
 10
-141.9063916360618
 20
85.29291418828767
 30
0.0
 11
-142.4268702943661
 21
84.77243552998333
 31
0.0
  0
LINE
  5
192
330
1F
100
AcDbEntity
  8
0
  6
Continuous
 62
     7
100
AcDbLine
 10
-140.423961845474
 20
92.6312962493369
 30
0.0
 11
-140.7919958342239
 21
93.26874981676393
 31
0.0
  0
LINE
  5
193
330
1F
100
AcDbEntity
  8
0
  6
Continuous
 62
     7
100
AcDbLine
 10
-143.2298180077328
 20
84.2677879224406
 30
0.0
 11
-141.8900720455772
 21
84.2677879224406
 31
0.0
  0
LINE
  5
194
330
1F
100
AcDbEntity
  8
0
  6
Continuous
 62
     7
100
AcDbLine
 10
-142.559945026655
 20
81.7677879224406
 30
0.0
 11
-143.2298180077328
 21
84.2677879224406
 31
0.0
  0
LINE
  5
195
330
1F
100
AcDbEntity
  8
0
  6
Continuous
 62
     7
100
AcDbLine
 10
-141.8900720455772
 20
84.2677879224406
 30
0.0
 11
-142.559945026655
 21
81.7677879224406
 31
0.0
  0
LINE
  5
196
330
1F
100
AcDbEntity
  8
0
  6
Continuous
 62
     7
100
AcDbLine
 10
-140.423961845474
 20
100.3312962493369
 30
0.0
 11
-140.7919958342239
 21
100.968749816764
 31
0.0
  0
LINE
  5
197
330
1F
100
AcDbEntity
  8
0
  6
Continuous
 62
     7
100
AcDbLine
 10
-145.2552974191123
 20
87.60086265472948
 30
0.0
 11
-144.7348187608079
 21
88.12134131303388
 31
0.0
  0
LINE
  5
198
330
1F
100
AcDbEntity
  8
0
  6
Continuous
 62
     7
100
AcDbLine
 10
-138.559945026655
 20
115.2677879224406
 30
0.0
 11
-146.559945026655
 21
115.2677879224406
 31
0.0
  0
LINE
  5
199
330
1F
100
AcDbEntity
  8
0
  6
Continuous
 62
     7
100
AcDbLine
 10
-143.2134984172483
 20
111.2426616565935
 30
0.0
 11
-142.6930197589439
 21
111.7631403148979
 31
0.0
  0
LINE
  5
19A
330
1F
100
AcDbEntity
  8
0
  6
Continuous
 62
     7
100
AcDbLine
 10
-146.397597473607
 20
110.2662635115784
 30
0.0
 11
-146.2634511301446
 21
110.2860805850445
 31
0.0
  0
LINE
  5
19B
330
1F
100
AcDbEntity
  8
0
  6
Continuous
 62
     7
100
AcDbLine
 10
-139.8645926341977
 20
108.9347131901517
 30
0.0
 11
-140.3850712925021
 21
108.4142345318473
 31
0.0
  0
LINE
  5
19C
330
1F
100
AcDbEntity
  8
0
  6
Continuous
 62
     7
100
AcDbLine
 10
-136.209945026655
 20
246.9741027675405
 30
0.0
 11
-136.209945026655
 21
232.9741027675405
 31
0.0
  0
LINE
  5
19D
330
1F
100
AcDbEntity
  8
0
  6
Continuous
 62
     7
100
AcDbLine
 10
-135.209945026655
 20
232.4741027675405
 30
0.0
 11
-135.209945026655
 21
249.4741027675405
 31
0.0
  0
LINE
  5
19E
330
1F
100
AcDbEntity
  8
0
  6
Continuous
 62
     7
100
AcDbLine
 10
-137.209945026655
 20
231.9741027675405
 30
0.0
 11
-137.909945026655
 21
231.9741027675405
 31
0.0
  0
LINE
  5
19F
330
1F
100
AcDbEntity
  8
0
  6
Continuous
 62
     7
100
AcDbLine
 10
-134.209945026655
 20
231.4741027675405
 30
0.0
 11
-134.209945026655
 21
232.4741027675405
 31
0.0
  0
LINE
  5
1A0
330
1F
100
AcDbEntity
  8
0
  6
Continuous
 62
     7
100
AcDbLine
 10
-135.209945026655
 20
225.9741027675408
 30
0.0
 11
-135.209945026655
 21
232.4741027675405
 31
0.0
  0
LINE
  5
1A1
330
1F
100
AcDbEntity
  8
0
  6
Continuous
 62
     7
100
AcDbLine
 10
-135.209945026655
 20
231.4741027675405
 30
0.0
 11
-134.209945026655
 21
231.4741027675405
 31
0.0
  0
LINE
  5
1A2
330
1F
100
AcDbEntity
  8
0
  6
Continuous
 62
     7
100
AcDbLine
 10
-135.209945026655
 20
232.4741027675405
 30
0.0
 11
-134.209945026655
 21
232.4741027675405
 31
0.0
  0
LINE
  5
1A3
330
1F
100
AcDbEntity
  8
0
  6
Continuous
 62
     7
100
AcDbLine
 10
-135.209945026655
 20
229.4741027675405
 30
0.0
 11
-134.209945026655
 21
229.4741027675405
 31
0.0
  0
LINE
  5
1A4
330
1F
100
AcDbEntity
  8
0
  6
Continuous
 62
     7
100
AcDbLine
 10
-135.209945026655
 20
230.4741027675405
 30
0.0
 11
-134.209945026655
 21
230.4741027675405
 31
0.0
  0
LINE
  5
1A5
330
1F
100
AcDbEntity
  8
0
  6
Continuous
 62
     7
100
AcDbLine
 10
-138.559945026655
 20
223.9741027675405
 30
0.0
 11
-138.559945026655
 21
225.9741027675405
 31
0.0
  0
LINE
  5
1A6
330
1F
100
AcDbEntity
  8
0
  6
Continuous
 62
     7
100
AcDbLine
 10
-134.209945026655
 20
229.4741027675405
 30
0.0
 11
-134.209945026655
 21
230.4741027675405
 31
0.0
  0
LINE
  5
1A7
330
1F
100
AcDbEntity
  8
0
  6
Continuous
 62
     7
100
AcDbLine
 10
-149.909945026655
 20
225.9741027675405
 30
0.0
 11
-135.209945026655
 21
225.9741027675408
 31
0.0
  0
LINE
  5
1A8
330
1F
100
AcDbEntity
  8
0
  6
Continuous
 62
     7
100
AcDbLine
 10
-135.209945026655
 20
255.9741027675405
 30
0.0
 11
-149.909945026655
 21
255.9741027675405
 31
0.0
  0
LINE
  5
1A9
330
1F
100
AcDbEntity
  8
0
  6
Continuous
 62
     7
100
AcDbLine
 10
-142.559945026655
 20
255.9741027675405
 30
0.0
 11
-142.559945026655
 21
256.0741027675405
 31
0.0
  0
LINE
  5
1AA
330
1F
100
AcDbEntity
  8
0
  6
Continuous
 62
     7
100
AcDbLine
 10
-139.8514264412275
 20
255.9741027675405
 30
0.0
 11
-139.8514264412275
 21
256.0741027675405
 31
0.0
  0
LINE
  5
1AB
330
1F
100
AcDbEntity
  8
0
  6
Continuous
 62
     7
100
AcDbLine
 10
-139.8514264412275
 20
256.0741027675405
 30
0.0
 11
-142.559945026655
 21
256.0741027675405
 31
0.0
  0
LINE
  5
1AC
330
1F
100
AcDbEntity
  8
0
  6
Continuous
 62
     7
100
AcDbLine
 10
-142.559945026655
 20
256.0741027675405
 30
0.0
 11
-145.2684636120825
 21
256.0741027675405
 31
0.0
  0
LINE
  5
1AD
330
1F
100
AcDbEntity
  8
0
  6
Continuous
 62
     7
100
AcDbLine
 10
-138.909945026655
 20
230.9741027675405
 30
0.0
 11
-138.909945026655
 21
227.9741027675405
 31
0.0
  0
LINE
  5
1AE
330
1F
100
AcDbEntity
  8
0
  6
Continuous
 62
     7
100
AcDbLine
 10
-145.909945026655
 20
227.9741027675405
 30
0.0
 11
-145.909945026655
 21
233.9741027675405
 31
0.0
  0
LINE
  5
1AF
330
1F
100
AcDbEntity
  8
0
  6
Continuous
 62
     7
100
AcDbLine
 10
-139.909945026655
 20
226.9741027675405
 30
0.0
 11
-144.909945026655
 21
226.9741027675405
 31
0.0
  0
LINE
  5
1B0
330
1F
100
AcDbEntity
  8
0
  6
Continuous
 62
     7
100
AcDbLine
 10
-146.559945026655
 20
223.9741027675405
 30
0.0
 11
-138.559945026655
 21
223.9741027675405
 31
0.0
  0
LINE
  5
1B1
330
1F
100
AcDbEntity
  8
0
  6
Continuous
 62
     7
100
AcDbLine
 10
-149.909945026655
 20
225.9741027675405
 30
0.0
 11
-149.909945026655
 21
255.9741027675405
 31
0.0
  0
LINE
  5
1B2
330
1F
100
AcDbEntity
  8
0
  6
Continuous
 62
     7
100
AcDbLine
 10
-146.909945026655
 20
234.9741027675405
 30
0.0
 11
-147.909945026655
 21
234.9741027675405
 31
0.0
  0
LINE
  5
1B3
330
1F
100
AcDbEntity
  8
0
  6
Continuous
 62
     7
100
AcDbLine
 10
-146.559945026655
 20
225.9741027675405
 30
0.0
 11
-146.559945026655
 21
223.9741027675405
 31
0.0
  0
LINE
  5
1B4
330
1F
100
AcDbEntity
  8
0
  6
Continuous
 62
     7
100
AcDbLine
 10
-139.559945026655
 20
257.9741027675405
 30
0.0
 11
-145.559945026655
 21
257.9741027675405
 31
0.0
  0
LINE
  5
1B5
330
1F
100
AcDbEntity
  8
0
  6
Continuous
 62
     7
100
AcDbLine
 10
-148.909945026655
 20
235.9741027675405
 30
0.0
 11
-148.909945026655
 21
250.9741027675405
 31
0.0
  0
LINE
  5
1B6
330
1F
100
AcDbEntity
  8
0
  6
Continuous
 62
     7
100
AcDbLine
 10
-147.909945026655
 20
251.9741027675405
 30
0.0
 11
-147.409945026655
 21
251.9741027675405
 31
0.0
  0
LINE
  5
1B7
330
1F
100
AcDbEntity
  8
0
  6
Continuous
 62
     7
100
AcDbLine
 10
-145.559945026655
 20
257.9741027675405
 30
0.0
 11
-145.559945026655
 21
255.9741027675405
 31
0.0
  0
LINE
  5
1B8
330
1F
100
AcDbEntity
  8
0
  6
Continuous
 62
     7
100
AcDbLine
 10
-137.409945026655
 20
247.9741027675405
 30
0.0
 11
-137.209945026655
 21
247.9741027675405
 31
0.0
  0
LINE
  5
1B9
330
1F
100
AcDbEntity
  8
0
  6
Continuous
 62
     7
100
AcDbLine
 10
-138.409945026655
 20
253.9741027675405
 30
0.0
 11
-138.409945026655
 21
248.9741027675405
 31
0.0
  0
LINE
  5
1BA
330
1F
100
AcDbEntity
  8
0
  6
Continuous
 62
     7
100
AcDbLine
 10
-135.209945026655
 20
249.4741027675405
 30
0.0
 11
-135.209945026655
 21
255.9741027675405
 31
0.0
  0
LINE
  5
1BB
330
1F
100
AcDbEntity
  8
0
  6
Continuous
 62
     7
100
AcDbLine
 10
-134.209945026655
 20
249.4741027675405
 30
0.0
 11
-134.209945026655
 21
250.4741027675405
 31
0.0
  0
LINE
  5
1BC
330
1F
100
AcDbEntity
  8
0
  6
Continuous
 62
     7
100
AcDbLine
 10
-135.209945026655
 20
251.4741027675405
 30
0.0
 11
-134.209945026655
 21
251.4741027675405
 31
0.0
  0
LINE
  5
1BD
330
1F
100
AcDbEntity
  8
0
  6
Continuous
 62
     7
100
AcDbLine
 10
-135.209945026655
 20
252.4741027675405
 30
0.0
 11
-134.209945026655
 21
252.4741027675405
 31
0.0
  0
LINE
  5
1BE
330
1F
100
AcDbEntity
  8
0
  6
Continuous
 62
     7
100
AcDbLine
 10
-134.209945026655
 20
251.4741027675405
 30
0.0
 11
-134.209945026655
 21
252.4741027675405
 31
0.0
  0
LINE
  5
1BF
330
1F
100
AcDbEntity
  8
0
  6
Continuous
 62
     7
100
AcDbLine
 10
-135.209945026655
 20
249.4741027675405
 30
0.0
 11
-134.209945026655
 21
249.4741027675405
 31
0.0
  0
LINE
  5
1C0
330
1F
100
AcDbEntity
  8
0
  6
Continuous
 62
     7
100
AcDbLine
 10
-135.209945026655
 20
250.4741027675405
 30
0.0
 11
-134.209945026655
 21
250.4741027675405
 31
0.0
  0
LINE
  5
1C1
330
1F
100
AcDbEntity
  8
0
  6
Continuous
 62
     7
100
AcDbLine
 10
-139.559945026655
 20
255.9741027675405
 30
0.0
 11
-139.559945026655
 21
257.9741027675405
 31
0.0
  0
LINE
  5
1C2
330
1F
100
AcDbEntity
  8
0
  6
Continuous
 62
     7
100
AcDbLine
 10
-146.409945026655
 20
252.9741027675405
 30
0.0
 11
-146.409945026655
 21
253.9741027675405
 31
0.0
  0
LINE
  5
1C3
330
1F
100
AcDbEntity
  8
0
  6
Continuous
 62
     7
100
AcDbLine
 10
-145.2684636120825
 20
255.9741027675405
 30
0.0
 11
-145.2684636120825
 21
256.0741027675405
 31
0.0
  0
LINE
  5
1C4
330
1F
100
AcDbEntity
  8
0
  6
Continuous
 62
     7
100
AcDbLine
 10
-145.409945026655
 20
254.9741027675405
 30
0.0
 11
-139.409945026655
 21
254.9741027675405
 31
0.0
  0
LINE
  5
1C5
330
1F
100
AcDbEntity
  8
0
  6
Continuous
 62
     7
100
AcDbLine
 10
-135.209945026655
 20
177.3965957437746
 30
0.0
 11
-135.209945026655
 21
170.396595743774
 31
0.0
  0
LINE
  5
1C6
330
1F
100
AcDbEntity
  8
0
  6
Continuous
 62
     7
100
AcDbLine
 10
-135.209945026655
 20
187.3965957437743
 30
0.0
 11
-135.209945026655
 21
177.3965957437746
 31
0.0
  0
LINE
  5
1C7
330
1F
100
AcDbEntity
  8
0
  6
Continuous
 62
     7
100
AcDbLine
 10
-137.209945026655
 20
187.396595743774
 30
0.0
 11
-135.209945026655
 21
187.3965957437743
 31
0.0
  0
LINE
  5
1C8
330
1F
100
AcDbEntity
  8
0
  6
Continuous
 62
     7
100
AcDbLine
 10
-149.909945026655
 20
170.396595743774
 30
0.0
 11
-149.909945026655
 21
187.396595743774
 31
0.0
  0
LINE
  5
1C9
330
1F
100
AcDbEntity
  8
0
  6
Continuous
 62
     7
100
AcDbLine
 10
-149.909945026655
 20
187.396595743774
 30
0.0
 11
-147.909945026655
 21
187.396595743774
 31
0.0
  0
LINE
  5
1CA
330
1F
100
AcDbEntity
  8
0
  6
Continuous
 62
     7
100
AcDbLine
 10
-135.209945026655
 20
177.3965957437746
 30
0.0
 11
-134.209945026655
 21
177.396595743774
 31
0.0
  0
LINE
  5
1CB
330
1F
100
AcDbEntity
  8
0
  6
Continuous
 62
     7
100
AcDbLine
 10
-135.209945026655
 20
187.3965957437743
 30
0.0
 11
-134.209945026655
 21
187.396595743774
 31
0.0
  0
LINE
  5
1CC
330
1F
100
AcDbEntity
  8
0
  6
Continuous
 62
     7
100
AcDbLine
 10
-134.209945026655
 20
177.396595743774
 30
0.0
 11
-134.209945026655
 21
187.396595743774
 31
0.0
  0
LINE
  5
1CD
330
1F
100
AcDbEntity
  8
0
  6
Continuous
 62
     7
100
AcDbLine
 10
-135.209945026655
 20
153.396595743774
 30
0.0
 11
-135.209945026655
 21
170.396595743774
 31
0.0
  0
LINE
  5
1CE
330
1F
100
AcDbEntity
  8
0
  6
Continuous
 62
     7
100
AcDbLine
 10
-135.209945026655
 20
153.396595743774
 30
0.0
 11
-149.909945026655
 21
153.396595743774
 31
0.0
  0
LINE
  5
1CF
330
1F
100
AcDbEntity
  8
0
  6
Continuous
 62
     7
100
AcDbLine
 10
-135.209945026655
 20
170.396595743774
 30
0.0
 11
-137.209945026655
 21
170.396595743774
 31
0.0
  0
LINE
  5
1D0
330
1F
100
AcDbEntity
  8
0
  6
Continuous
 62
     7
100
AcDbLine
 10
-145.559945026655
 20
187.396595743774
 30
0.0
 11
-139.559945026655
 21
187.396595743774
 31
0.0
  0
LINE
  5
1D1
330
1F
100
AcDbEntity
  8
0
  6
Continuous
 62
     7
100
AcDbLine
 10
-139.559945026655
 20
183.396595743774
 30
0.0
 11
-139.559945026655
 21
187.396595743774
 31
0.0
  0
LINE
  5
1D2
330
1F
100
AcDbEntity
  8
0
  6
Continuous
 62
     7
100
AcDbLine
 10
-145.559945026655
 20
187.396595743774
 30
0.0
 11
-145.5599450266549
 21
183.3965957437754
 31
0.0
  0
LINE
  5
1D3
330
1F
100
AcDbEntity
  8
0
  6
Continuous
 62
     7
100
AcDbLine
 10
-139.559945026655
 20
183.396595743774
 30
0.0
 11
-145.5599450266549
 21
183.3965957437754
 31
0.0
  0
LINE
  5
1D4
330
1F
100
AcDbEntity
  8
0
  6
Continuous
 62
     7
100
AcDbLine
 10
-149.909945026655
 20
153.396595743774
 30
0.0
 11
-149.909945026655
 21
170.396595743774
 31
0.0
  0
LINE
  5
1D5
330
1F
100
AcDbEntity
  8
0
  6
Continuous
 62
     7
100
AcDbLine
 10
-147.909945026655
 20
170.396595743774
 30
0.0
 11
-149.909945026655
 21
170.396595743774
 31
0.0
  0
LINE
  5
1D6
330
1F
100
AcDbEntity
  8
0
  6
Continuous
 62
     7
100
AcDbLine
 10
-147.909945026655
 20
187.396595743774
 30
0.0
 11
-147.909945026655
 21
170.396595743774
 31
0.0
  0
LINE
  5
1D7
330
1F
100
AcDbEntity
  8
0
  6
Continuous
 62
     7
100
AcDbLine
 10
-137.209945026655
 20
187.396595743774
 30
0.0
 11
-139.559945026655
 21
187.396595743774
 31
0.0
  0
LINE
  5
1D8
330
1F
100
AcDbEntity
  8
0
  6
Continuous
 62
     7
100
AcDbLine
 10
-147.909945026655
 20
187.396595743774
 30
0.0
 11
-145.559945026655
 21
187.396595743774
 31
0.0
  0
LINE
  5
1D9
330
1F
100
AcDbEntity
  8
0
  6
Continuous
 62
     7
100
AcDbLine
 10
-137.209945026655
 20
170.396595743774
 30
0.0
 11
-137.209945026655
 21
187.396595743774
 31
0.0
  0
ARC
  5
1DA
102
{ACAD_REACTORS
330
28C
102
}
330
1F
100
AcDbEntity
  8
1
  6
Continuous
 62
     7
100
AcDbCircle
 10
-19.72539976544869
 20
15.73121731203457
 30
0.0
 40
0.2649662124752854
100
AcDbArc
 50
30.00000000001921
 51
180.0
  0
ARC
  5
1DB
102
{ACAD_REACTORS
330
28C
102
}
330
1F
100
AcDbEntity
  8
1
  6
Continuous
 62
     7
100
AcDbCircle
 10
-19.65703264459069
 20
10.84758507263291
 30
0.0
 40
0.3333333333333997
100
AcDbArc
 50
180.0
 51
0.0
  0
ARC
  5
1DC
102
{ACAD_REACTORS
330
28C
102
}
330
1F
100
AcDbEntity
  8
1
  6
Continuous
 62
     7
100
AcDbCircle
 10
-16.99036597792389
 20
9.3082690706018
 30
0.0
 40
0.3333333333333997
100
AcDbArc
 50
180.0
 51
0.0
  0
ARC
  5
1DD
102
{ACAD_REACTORS
330
28C
102
}
330
1F
100
AcDbEntity
  8
1
  6
Continuous
 62
     7
100
AcDbCircle
 10
-16.921998857066
 20
15.73121731203457
 30
0.0
 40
0.2649662124753114
100
AcDbArc
 50
0.0
 51
149.9999999999689
  0
ARC
  5
1DE
102
{ACAD_REACTORS
330
28D
102
}
330
1F
100
AcDbEntity
  8
1
  6
Continuous
 62
     7
100
AcDbCircle
 10
-20.99036597792409
 20
14.92250016016737
 30
0.0
 40
0.3333333333333997
100
AcDbArc
 50
0.0
 51
180.0
  0
ARC
  5
1DF
102
{ACAD_REACTORS
330
28D
102
}
330
1F
100
AcDbEntity
  8
1
  6
Continuous
 62
     7
100
AcDbCircle
 10
-18.65703264459069
 20
8.7313459936787
 30
0.0
 40
0.3333333333333673
100
AcDbArc
 50
240.0183606311504
 51
60.01836063115359
  0
ARC
  5
1E0
102
{ACAD_REACTORS
330
28E
102
}
330
1F
100
AcDbEntity
  8
1
  6
Continuous
 62
     7
100
AcDbCircle
 10
-22.32369931125729
 20
14.15326939093666
 30
0.0
 40
0.3333333333332007
100
AcDbArc
 50
0.0
 51
180.0
  0
ARC
  5
1E1
102
{ACAD_REACTORS
330
28E
102
}
330
1F
100
AcDbEntity
  8
1
  6
Continuous
 62
     7
100
AcDbCircle
 10
-22.32369931125729
 20
10.84673060906317
 30
0.0
 40
0.3333333333333997
100
AcDbArc
 50
180.0
 51
0.0
  0
ARC
  5
1E2
102
{ACAD_REACTORS
330
28F
102
}
330
1F
100
AcDbEntity
  8
1
  6
Continuous
 62
     7
100
AcDbCircle
 10
-14.32369931125729
 20
14.15326939093666
 30
0.0
 40
0.333333333333372
100
AcDbArc
 50
240.0183606311508
 51
60.01836063115039
  0
ARC
  5
1E3
102
{ACAD_REACTORS
330
28F
102
}
330
1F
100
AcDbEntity
  8
1
  6
Continuous
 62
     7
100
AcDbCircle
 10
-14.32369931125729
 20
12.5
 30
0.0
 40
0.3333333333334298
100
AcDbArc
 50
270.0
 51
90.0
  0
ARC
  5
1E4
102
{ACAD_REACTORS
330
28F
102
}
330
1F
100
AcDbEntity
  8
1
  6
Continuous
 62
     7
100
AcDbCircle
 10
-14.32369931125729
 20
10.84673060906317
 30
0.0
 40
0.3333333333333121
100
AcDbArc
 50
299.9816393688349
 51
119.9816393688398
  0
ARC
  5
1E5
330
1F
100
AcDbEntity
  8
0
  6
Continuous
 62
     7
100
AcDbCircle
 10
-61.48994438599038
 20
174.896595743774
 30
0.0
 40
0.5
100
AcDbArc
 50
180.0
 51
270.0
  0
ARC
  5
1E6
330
1F
100
AcDbEntity
  8
0
  6
Continuous
 62
     7
100
AcDbCircle
 10
-56.48994438599036
 20
174.896595743774
 30
0.0
 40
0.5
100
AcDbArc
 50
270.0
 51
0.0
  0
ARC
  5
1E7
330
1F
100
AcDbEntity
  8
0
  6
Continuous
 62
     7
100
AcDbCircle
 10
-61.48994438599038
 20
174.896595743774
 30
0.0
 40
3.500000000000007
100
AcDbArc
 50
180.0
 51
270.0
  0
ARC
  5
1E8
330
1F
100
AcDbEntity
  8
0
  6
Continuous
 62
     7
100
AcDbCircle
 10
-56.48994438599036
 20
174.896595743774
 30
0.0
 40
3.5
100
AcDbArc
 50
270.0
 51
0.0
  0
ARC
  5
1E9
330
1F
100
AcDbEntity
  8
0
  6
Continuous
 62
     7
100
AcDbCircle
 10
-145.309945026655
 20
93.2677879224406
 30
0.0
 40
2.500000000000051
100
AcDbArc
 50
173.1301023541555
 51
66.86989764584577
  0
ARC
  5
1EA
330
1F
100
AcDbEntity
  8
0
  6
Continuous
 62
     7
100
AcDbCircle
 10
-145.309945026655
 20
93.2677879224406
 30
0.0
 40
2.999999999999991
100
AcDbArc
 50
78.18968510422305
 51
161.8103148957782
  0
ARC
  5
1EB
330
1F
100
AcDbEntity
  8
0
  6
Continuous
 62
     7
100
AcDbCircle
 10
-145.309945026655
 20
100.9677879224406
 30
0.0
 40
2.500000000000051
100
AcDbArc
 50
173.1301023541555
 51
66.86989764584627
  0
ARC
  5
1EC
330
1F
100
AcDbEntity
  8
0
  6
Continuous
 62
     7
100
AcDbCircle
 10
-145.309945026655
 20
100.9677879224406
 30
0.0
 40
2.999999999999963
100
AcDbArc
 50
78.18968510422293
 51
161.8103148957787
  0
ARC
  5
1ED
330
1F
100
AcDbEntity
  8
0
  6
Continuous
 62
     7
100
AcDbCircle
 10
-139.809945026655
 20
95.56778792244062
 30
0.0
 40
3.000000000000014
100
AcDbArc
 50
258.1896851042209
 51
341.8103148957785
  0
ARC
  5
1EE
330
1F
100
AcDbEntity
  8
0
  6
Continuous
 62
     7
100
AcDbCircle
 10
-139.809945026655
 20
95.56778792244062
 30
0.0
 40
2.500000000000022
100
AcDbArc
 50
353.1301023541554
 51
246.8698976458433
  0
ARC
  5
1EF
330
1F
100
AcDbEntity
  8
0
  6
Continuous
 62
     7
100
AcDbCircle
 10
-139.809945026655
 20
103.2677879224406
 30
0.0
 40
3.0
100
AcDbArc
 50
258.1896851042208
 51
341.8103148957788
  0
ARC
  5
1F0
330
1F
100
AcDbEntity
  8
0
  6
Continuous
 62
     7
100
AcDbCircle
 10
-139.809945026655
 20
103.2677879224406
 30
0.0
 40
2.500000000000012
100
AcDbArc
 50
353.1301023541573
 51
246.8698976458425
  0
ARC
  5
1F1
330
1F
100
AcDbEntity
  8
0
  6
Continuous
 62
     7
100
AcDbCircle
 10
-142.259945026655
 20
87.7677879224406
 30
0.0
 40
3.000000000000023
100
AcDbArc
 50
183.1896851042219
 51
266.8103148957786
  0
ARC
  5
1F2
330
1F
100
AcDbEntity
  8
0
  6
Continuous
 62
     7
100
AcDbCircle
 10
-142.859945026655
 20
108.7677879224406
 30
0.0
 40
3.000000000000021
100
AcDbArc
 50
3.18968510422135
 51
86.81031489577863
  0
ARC
  5
1F3
330
1F
100
AcDbEntity
  8
0
  6
Continuous
 62
     7
100
AcDbCircle
 10
-142.259945026655
 20
87.7677879224406
 30
0.0
 40
2.500000000000008
100
AcDbArc
 50
278.1301023541541
 51
171.8698976458439
  0
ARC
  5
1F4
330
1F
100
AcDbEntity
  8
0
  6
Continuous
 62
     7
100
AcDbCircle
 10
-142.859945026655
 20
108.7677879224406
 30
0.0
 40
2.499999999999982
100
AcDbArc
 50
98.13010235415675
 51
351.8698976458433
  0
ARC
  5
1F5
330
1F
100
AcDbEntity
  8
0
  6
Continuous
 62
     7
100
AcDbCircle
 10
-137.209945026655
 20
232.9741027675405
 30
0.0
 40
1.0
100
AcDbArc
 50
270.0
 51
0.0
  0
ARC
  5
1F6
330
1F
100
AcDbEntity
  8
0
  6
Continuous
 62
     7
100
AcDbCircle
 10
-137.909945026655
 20
230.9741027675405
 30
0.0
 40
1.0
100
AcDbArc
 50
90.0
 51
180.0
  0
ARC
  5
1F7
330
1F
100
AcDbEntity
  8
0
  6
Continuous
 62
     7
100
AcDbCircle
 10
-139.909945026655
 20
227.9741027675405
 30
0.0
 40
1.0
100
AcDbArc
 50
270.0
 51
0.0
  0
ARC
  5
1F8
330
1F
100
AcDbEntity
  8
0
  6
Continuous
 62
     7
100
AcDbCircle
 10
-146.909945026655
 20
233.9741027675405
 30
0.0
 40
1.0
100
AcDbArc
 50
0.0
 51
90.0
  0
ARC
  5
1F9
330
1F
100
AcDbEntity
  8
0
  6
Continuous
 62
     7
100
AcDbCircle
 10
-144.909945026655
 20
227.9741027675405
 30
0.0
 40
1.0
100
AcDbArc
 50
180.0
 51
270.0
  0
ARC
  5
1FA
330
1F
100
AcDbEntity
  8
0
  6
Continuous
 62
     7
100
AcDbCircle
 10
-147.909945026655
 20
235.9741027675405
 30
0.0
 40
1.0
100
AcDbArc
 50
180.0
 51
270.0
  0
ARC
  5
1FB
330
1F
100
AcDbEntity
  8
0
  6
Continuous
 62
     7
100
AcDbCircle
 10
-147.909945026655
 20
250.9741027675405
 30
0.0
 40
1.0
100
AcDbArc
 50
90.0
 51
180.0
  0
ARC
  5
1FC
330
1F
100
AcDbEntity
  8
0
  6
Continuous
 62
     7
100
AcDbCircle
 10
-147.409945026655
 20
252.9741027675405
 30
0.0
 40
1.0
100
AcDbArc
 50
270.0
 51
0.0
  0
ARC
  5
1FD
330
1F
100
AcDbEntity
  8
0
  6
Continuous
 62
     7
100
AcDbCircle
 10
-137.209945026655
 20
246.9741027675405
 30
0.0
 40
1.0
100
AcDbArc
 50
0.0
 51
90.0
  0
ARC
  5
1FE
330
1F
100
AcDbEntity
  8
0
  6
Continuous
 62
     7
100
AcDbCircle
 10
-137.409945026655
 20
248.9741027675405
 30
0.0
 40
1.0
100
AcDbArc
 50
180.0
 51
270.0
  0
ARC
  5
1FF
330
1F
100
AcDbEntity
  8
0
  6
Continuous
 62
     7
100
AcDbCircle
 10
-139.409945026655
 20
253.9741027675405
 30
0.0
 40
1.0
100
AcDbArc
 50
0.0
 51
90.0
  0
ARC
  5
200
330
1F
100
AcDbEntity
  8
0
  6
Continuous
 62
     7
100
AcDbCircle
 10
-145.409945026655
 20
253.9741027675405
 30
0.0
 40
1.0
100
AcDbArc
 50
90.0
 51
180.0
  0
CIRCLE
  5
201
330
1F
100
AcDbEntity
  8
0
  6
Continuous
 62
     7
100
AcDbCircle
 10
-142.859945026655
 20
108.7677879224406
 30
0.0
 40
1.25
  0
CIRCLE
  5
202
330
1F
100
AcDbEntity
  8
0
  6
Continuous
 62
     7
100
AcDbCircle
 10
-139.809945026655
 20
103.2677879224406
 30
0.0
 40
1.25
  0
CIRCLE
  5
203
330
1F
100
AcDbEntity
  8
0
  6
Continuous
 62
     7
100
AcDbCircle
 10
-142.259945026655
 20
87.7677879224406
 30
0.0
 40
1.25
  0
CIRCLE
  5
204
330
1F
100
AcDbEntity
  8
0
  6
Continuous
 62
     7
100
AcDbCircle
 10
-145.309945026655
 20
100.9677879224406
 30
0.0
 40
1.250000000000014
  0
CIRCLE
  5
205
330
1F
100
AcDbEntity
  8
0
  6
Continuous
 62
     7
100
AcDbCircle
 10
-145.309945026655
 20
93.2677879224406
 30
0.0
 40
1.25
  0
CIRCLE
  5
206
330
1F
100
AcDbEntity
  8
0
  6
Continuous
 62
     7
100
AcDbCircle
 10
-139.809945026655
 20
95.56778792244062
 30
0.0
 40
1.25
  0
CIRCLE
  5
207
330
1F
100
AcDbEntity
  8
0
  6
Continuous
 62
     7
100
AcDbCircle
 10
-142.259945026655
 20
251.4741027675405
 30
0.0
 40
1.25
  0
CIRCLE
  5
208
330
1F
100
AcDbEntity
  8
0
  6
Continuous
 62
     7
100
AcDbCircle
 10
-139.809945026655
 20
235.9741027675405
 30
0.0
 40
1.25
  0
CIRCLE
  5
209
330
1F
100
AcDbEntity
  8
0
  6
Continuous
 62
     7
100
AcDbCircle
 10
-142.859945026655
 20
230.4741027675405
 30
0.0
 40
1.25
  0
CIRCLE
  5
20A
330
1F
100
AcDbEntity
  8
0
  6
Continuous
 62
     7
100
AcDbCircle
 10
-145.309945026655
 20
238.2741027675405
 30
0.0
 40
1.25
  0
CIRCLE
  5
20B
330
1F
100
AcDbEntity
  8
0
  6
Continuous
 62
     7
100
AcDbCircle
 10
-145.309945026655
 20
245.9741027675405
 30
0.0
 40
1.25
  0
CIRCLE
  5
20C
330
1F
100
AcDbEntity
  8
0
  6
Continuous
 62
     7
100
AcDbCircle
 10
-139.809945026655
 20
243.6741027675405
 30
0.0
 40
1.25
  0
SPLINE
  5
20D
330
1F
100
AcDbEntity
  8
0
  6
Continuous
 62
     7
100
AcDbSpline
210
0.0
220
0.0
230
1.0
 70
     8
 71
     3
 72
    11
 73
     7
 74
     5
 42
0.000000001
 43
0.0000000001
 44
0.00000001
 40
0.0
 40
0.0
 40
0.0
 40
0.0
 40
0.4786126554225183
 40
0.992725082098279
 40
1.565429375005504
 40
2.204028707785373
 40
2.204028707785373
 40
2.204028707785373
 40
2.204028707785373
 10
-38.89781855840522
 20
254.7361532636601
 30
0.0
 10
-38.7623187961622
 20
254.8235834607406
 30
0.0
 10
-38.48126896018588
 20
255.0049287598082
 30
0.0
 10
-38.19786319786918
 20
255.4591470095459
 30
0.0
 10
-38.01790006359454
 20
256.010502889954
 30
0.0
 10
-37.99844769223258
 20
256.4156290382813
 30
0.0
 10
-37.98819240850216
 20
256.6292115650833
 30
0.0
 11
-38.89781855840522
 21
254.7361532636601
 31
0.0
 11
-38.51487160373715
 21
255.0232450720826
 31
0.0
 11
-38.22713343641074
 21
255.4492947619838
 31
0.0
 11
-38.04866675096294
 21
255.9934820939647
 31
0.0
 11
-37.98819240850216
 21
256.6292115650833
 31
0.0
  0
SPLINE
  5
20E
330
1F
100
AcDbEntity
  8
0
  6
Continuous
 62
     7
100
AcDbSpline
210
0.0
220
0.0
230
1.0
 70
     8
 71
     3
 72
     9
 73
     5
 74
     3
 42
0.000000001
 43
0.0000000001
 44
0.00000001
 40
0.0
 40
0.0
 40
0.0
 40
0.0
 40
0.106807303137323
 40
0.2303320446272156
 40
0.2303320446272156
 40
0.2303320446272156
 40
0.2303320446272156
 10
-41.19405349950694
 20
256.9421377593588
 30
0.0
 10
-41.22920202802761
 20
256.9316329869002
 30
0.0
 10
-41.30500052105882
 20
256.9089792581426
 30
0.0
 10
-41.37833289156399
 20
256.9398063733389
 30
0.0
 10
-41.41766029725693
 20
256.9563386529666
 30
0.0
 11
-41.19405349950694
 21
256.9421377593588
 31
0.0
 11
-41.29896880397133
 21
256.9221232798719
 31
0.0
 11
-41.41766029725693
 21
256.9563386529666
 31
0.0
  0
SPLINE
  5
20F
330
1F
100
AcDbEntity
  8
0
  6
Continuous
 62
     7
100
AcDbSpline
210
0.0
220
0.0
230
1.0
 70
     8
 71
     3
 72
    15
 73
    11
 74
     9
 42
0.000000001
 43
0.0000000001
 44
0.00000001
 40
0.0
 40
0.0
 40
0.0
 40
0.0
 40
0.6385993293830532
 40
1.211303622895261
 40
1.725416051489511
 40
2.204028707706573
 40
2.572696000285693
 40
2.958330457331831
 40
3.374052989112685
 40
3.827319709511419
 40
3.827319709511419
 40
3.827319709511419
 40
3.827319709511419
 10
-38.94278656310399
 20
256.1519144877824
 30
0.0
 10
-38.95316269094248
 20
255.9385783641118
 30
0.0
 10
-38.9728442807375
 20
255.533919594901
 30
0.0
 10
-39.15127595918963
 20
254.9794410674353
 30
0.0
 10
-39.43969008873663
 20
254.535434910893
 30
0.0
 10
-39.80931971276472
 20
254.2545407423767
 30
0.0
 10
-40.20445326068146
 20
254.1232842857976
 30
0.0
 10
-40.59781080666183
 20
254.1041839968335
 30
0.0
 10
-41.01368413248464
 20
254.1788606943443
 30
0.0
 10
-41.27917807218753
 20
254.2967638749476
 30
0.0
 10
-41.41766029725693
 20
254.3582624416133
 30
0.0
 11
-38.94278656310399
 21
256.1519144877824
 31
0.0
 11
-39.00326090556476
 21
255.5161850166638
 31
0.0
 11
-39.18172759101256
 21
254.9719976846828
 31
0.0
 11
-39.46946575833897
 21
254.5459479947817
 31
0.0
 11
-39.85241271300706
 21
254.2588561863591
 31
0.0
 11
-40.20184599043773
 21
254.141331898084
 31
0.0
 11
-40.58681873567735
 21
254.1187504660325
 31
0.0
 11
-40.99607787866173
 21
254.1917722364728
 31
0.0
 11
-41.41766029725693
 21
254.3582624416133
 31
0.0
  0
SPLINE
  5
210
330
1F
100
AcDbEntity
  8
0
  6
Continuous
 62
     7
100
AcDbSpline
210
0.0
220
0.0
230
1.0
 70
     8
 71
     3
 72
    11
 73
     7
 74
     5
 42
0.000000001
 43
0.0000000001
 44
0.00000001
 40
0.0
 40
0.0
 40
0.0
 40
0.0
 40
0.0912284769718485
 40
0.1730433737219633
 40
0.2464880028207428
 40
0.3148612369616394
 40
0.3148612369616394
 40
0.3148612369616394
 40
0.3148612369616394
 10
-41.06410690666363
 20
257.2125746595622
 30
0.0
 10
-41.06557194721037
 20
257.1820628697313
 30
0.0
 10
-41.06835086947306
 20
257.1241877076014
 30
0.0
 10
-41.09405988318995
 20
257.0454225815964
 30
0.0
 10
-41.13454642399685
 20
256.9805342673091
 30
0.0
 10
-41.17469639127985
 20
256.9546277870843
 30
0.0
 10
-41.19405349950694
 20
256.9421377593588
 30
0.0
 11
-41.06410690666363
 21
257.2125746595622
 31
0.0
 11
-41.07274609844374
 21
257.1217561636881
 31
0.0
 11
-41.09824133922201
 21
257.0440151162622
 31
0.0
 11
-41.13934679169722
 21
256.9831508748478
 31
0.0
 11
-41.19405349950694
 21
256.9421377593588
 31
0.0
  0
SPLINE
  5
211
330
1F
100
AcDbEntity
  8
0
  6
Continuous
 62
     7
100
AcDbSpline
210
0.0
220
0.0
230
1.0
 70
     8
 71
     3
 72
    13
 73
     9
 74
     7
 42
0.000000001
 43
0.0000000001
 44
0.00000001
 40
0.0
 40
0.0
 40
0.0
 40
0.0
 40
0.2374167079262304
 40
0.4916179225549846
 40
0.7525957824343916
 40
1.009314886863805
 40
1.25137836192711
 40
1.470783052189143
 40
1.470783052189143
 40
1.470783052189143
 40
1.470783052189143
 10
-18.43668990869412
 20
244.5837740138929
 30
0.0
 10
-18.44176704382091
 20
244.5045660729394
 30
0.0
 10
-18.45228026413979
 20
244.3405504762449
 30
0.0
 10
-18.52655001854289
 20
244.0988717803066
 30
0.0
 10
-18.6368366632315
 20
243.8654332500969
 30
0.0
 10
-18.78206952136878
 20
243.6570497705605
 30
0.0
 10
-18.94855594013615
 20
243.4816323170877
 30
0.0
 10
-19.08088224455702
 20
243.4020381839676
 30
0.0
 10
-19.14379668988067
 20
243.3641952195151
 30
0.0
 11
-18.43668990869412
 21
244.5837740138929
 31
0.0
 11
-18.46078417008358
 21
244.3475830749142
 31
0.0
 11
-18.53142425418488
 21
244.1033941392552
 31
0.0
 11
-18.64379682318356
 21
243.8678482842144
 31
0.0
 11
-18.7902432992874
 21
243.6569973185963
 31
0.0
 11
-18.96078403678069
 21
243.4852108691319
 31
0.0
 11
-19.14379668988067
 21
243.3641952195151
 31
0.0
  0
SPLINE
  5
212
330
1F
100
AcDbEntity
  8
0
  6
Continuous
 62
     7
100
AcDbSpline
210
0.0
220
0.0
230
1.0
 70
     8
 71
     3
 72
    15
 73
    11
 74
     9
 42
0.000000001
 43
0.0000000001
 44
0.00000001
 40
0.0
 40
0.0
 40
0.0
 40
0.0
 40
0.129504773903928
 40
0.2482826387144569
 40
0.3584639110545373
 40
0.4637974221612839
 40
0.6005438939769085
 40
0.7474331579237001
 40
0.9110629546382252
 40
1.093519904181266
 40
1.093519904181266
 40
1.093519904181266
 40
1.093519904181266
 10
-24.09354415818649
 20
247.8175247156377
 30
0.0
 10
-24.05397780919104
 20
247.8350957342301
 30
0.0
 10
-23.97812239594417
 20
247.8687823480087
 30
0.0
 10
-23.85930144904412
 20
247.890118550847
 30
0.0
 10
-23.7469135796342
 20
247.8846613250971
 30
0.0
 10
-23.63401828130143
 20
247.8471594812391
 30
0.0
 10
-23.52840981839364
 20
247.766904005297
 30
0.0
 10
-23.44600578140106
 20
247.6400451046548
 30
0.0
 10
-23.39502530609009
 20
247.4816226692707
 30
0.0
 10
-23.38940198492602
 20
247.3660058800672
 30
0.0
 10
-23.38643737699994
 20
247.3050527024466
 30
0.0
 11
-24.09354415818649
 21
247.8175247156377
 31
0.0
 11
-23.97309203858788
 21
247.865093345678
 31
0.0
 11
-23.85616085487806
 21
247.8859567086609
 31
0.0
 11
-23.74616864195245
 21
247.8795048709318
 31
0.0
 11
-23.64633056268656
 21
247.8459265028532
 31
0.0
 11
-23.53691714706709
 21
247.7639002718753
 31
0.0
 11
-23.45470624211669
 21
247.6421717890464
 31
0.0
 11
-23.40371576056016
 21
247.4866896941948
 31
0.0
 11
-23.38643737699994
 21
247.3050527024466
 31
0.0
  0
SPLINE
  5
213
330
1F
100
AcDbEntity
  8
0
  6
Continuous
 62
     7
100
AcDbSpline
210
0.0
220
0.0
230
1.0
 70
     8
 71
     3
 72
    15
 73
    11
 74
     9
 42
0.000000001
 43
0.0000000001
 44
0.00000001
 40
0.0
 40
0.0
 40
0.0
 40
0.0
 40
0.182456949543012
 40
0.3460867462575338
 40
0.4929760102043469
 40
0.629722482019966
 40
0.7350559931267113
 40
0.8452372654668008
 40
0.9640151302773297
 40
1.093519904181198
 40
1.093519904181198
 40
1.093519904181198
 40
1.093519904181198
 10
-23.38643737699994
 20
242.1089002797399
 30
0.0
 10
-23.38347276907386
 20
242.0479471021193
 30
0.0
 10
-23.3778494479098
 20
241.9323303129159
 30
0.0
 10
-23.32686897259884
 20
241.7739078775317
 30
0.0
 10
-23.24446493560626
 20
241.6470489768896
 30
0.0
 10
-23.1388564726985
 20
241.5667935009473
 30
0.0
 10
-23.02596117436571
 20
241.5292916570896
 30
0.0
 10
-22.91357330495578
 20
241.5238344313395
 30
0.0
 10
-22.79475235805578
 20
241.545170634178
 30
0.0
 10
-22.71889694480885
 20
241.5788572479563
 30
0.0
 10
-22.67933059581341
 20
241.5964282665487
 30
0.0
 11
-23.38643737699994
 21
242.1089002797399
 31
0.0
 11
-23.36915899343973
 21
241.9272632879918
 31
0.0
 11
-23.31816851188321
 21
241.7717811931401
 31
0.0
 11
-23.23595760693281
 21
241.6500527103112
 31
0.0
 11
-23.12654419131337
 21
241.5680264793333
 31
0.0
 11
-23.02670611204746
 21
241.5344481112547
 31
0.0
 11
-22.91671389912185
 21
241.5279962735257
 31
0.0
 11
-22.79978271541203
 21
241.5488596365086
 31
0.0
 11
-22.67933059581341
 21
241.5964282665487
 31
0.0
  0
SPLINE
  5
214
330
1F
100
AcDbEntity
  8
0
  6
Continuous
 62
     7
100
AcDbSpline
210
0.0
220
0.0
230
1.0
 70
     8
 71
     3
 72
    13
 73
     9
 74
     7
 42
0.000000001
 43
0.0000000001
 44
0.00000001
 40
0.0
 40
0.0
 40
0.0
 40
0.0
 40
0.2374167079261441
 40
0.4916179225549256
 40
0.7525957824343886
 40
1.009314886863828
 40
1.251378361927112
 40
1.470783052189082
 40
1.470783052189082
 40
1.470783052189082
 40
1.470783052189082
 10
-16.52750159949045
 20
249.8684951874169
 30
0.0
 10
-16.53257873461724
 20
249.7892872464635
 30
0.0
 10
-16.54309195493612
 20
249.6252716497689
 30
0.0
 10
-16.61736170933921
 20
249.3835929538307
 30
0.0
 10
-16.72764835402782
 20
249.1501544236209
 30
0.0
 10
-16.87288121216509
 20
248.9417709440844
 30
0.0
 10
-17.03936763093247
 20
248.7663534906118
 30
0.0
 10
-17.17169393535335
 20
248.6867593574917
 30
0.0
 10
-17.234608380677
 20
248.6489163930392
 30
0.0
 11
-16.52750159949045
 21
249.8684951874169
 31
0.0
 11
-16.5515958608799
 21
249.6323042484382
 31
0.0
 11
-16.6222359449812
 21
249.3881153127793
 31
0.0
 11
-16.73460851397989
 21
249.1525694577384
 31
0.0
 11
-16.88105499008373
 21
248.9417184921202
 31
0.0
 11
-17.05159572757702
 21
248.7699320426559
 31
0.0
 11
-17.234608380677
 21
248.6489163930392
 31
0.0
  0
SPLINE
  5
215
330
1F
100
AcDbEntity
  8
0
  6
Continuous
 62
     7
100
AcDbSpline
210
0.0
220
0.0
230
1.0
 70
     8
 71
     3
 72
    13
 73
     9
 74
     7
 42
0.000000001
 43
0.0000000001
 44
0.00000001
 40
0.0
 40
0.0
 40
0.0
 40
0.0
 40
0.2194046902620011
 40
0.4614681653252455
 40
0.7181872697547527
 40
0.9791651296341854
 40
1.233366344262912
 40
1.470783052189058
 40
1.470783052189058
 40
1.470783052189058
 40
1.470783052189058
 10
-17.72958312750757
 20
248.4014290196239
 30
0.0
 10
-17.79249757283122
 20
248.3635860551713
 30
0.0
 10
-17.92482387725208
 20
248.2839919220513
 30
0.0
 10
-18.09131029601953
 20
248.1085744685787
 30
0.0
 10
-18.23654315415671
 20
247.900190989042
 30
0.0
 10
-18.34682979884535
 20
247.6667524588324
 30
0.0
 10
-18.42109955324844
 20
247.4250737628941
 30
0.0
 10
-18.43161277356733
 20
247.2610581661996
 30
0.0
 10
-18.43668990869412
 20
247.1818502252462
 30
0.0
 11
-17.72958312750757
 21
248.4014290196239
 31
0.0
 11
-17.91259578060755
 21
248.2804133700072
 31
0.0
 11
-18.08313651810084
 21
248.1086269205429
 31
0.0
 11
-18.22958299420468
 21
247.8977759549246
 31
0.0
 11
-18.34195556320336
 21
247.6622300998837
 31
0.0
 11
-18.41259564730466
 21
247.4180411642249
 31
0.0
 11
-18.43668990869412
 21
247.1818502252462
 31
0.0
  0
SPLINE
  5
216
330
1F
100
AcDbEntity
  8
0
  6
Continuous
 62
     7
100
AcDbSpline
210
0.0
220
0.0
230
1.0
 70
     8
 71
     3
 72
    15
 73
    11
 74
     9
 42
0.000000001
 43
0.0000000001
 44
0.00000001
 40
0.0
 40
0.0
 40
0.0
 40
0.0
 40
0.1295047739038747
 40
0.2482826387144121
 40
0.358463911054498
 40
0.4637974221612265
 40
0.6005438939768455
 40
0.7474331579236606
 40
0.9110629546381857
 40
1.093519904181199
 40
1.093519904181199
 40
1.093519904181199
 40
1.093519904181199
 10
-24.80065093937304
 20
247.4639713250444
 30
0.0
 10
-24.8402172883685
 20
247.4464003064519
 30
0.0
 10
-24.91607270161544
 20
247.4127136926739
 30
0.0
 10
-25.03489364851541
 20
247.3913774898352
 30
0.0
 10
-25.14728151792535
 20
247.3968347155853
 30
0.0
 10
-25.26017681625813
 20
247.4343365594429
 30
0.0
 10
-25.36578527916589
 20
247.5145920353853
 30
0.0
 10
-25.44818931615847
 20
247.6414509360274
 30
0.0
 10
-25.49916979146944
 20
247.7998733714116
 30
0.0
 10
-25.50479311263351
 20
247.915490160615
 30
0.0
 10
-25.5077577205596
 20
247.9764433382356
 30
0.0
 11
-24.80065093937304
 21
247.4639713250444
 31
0.0
 11
-24.92110305897167
 21
247.4164026950043
 31
0.0
 11
-25.03803424268149
 21
247.3955393320214
 31
0.0
 11
-25.14802645560711
 21
247.4019911697504
 31
0.0
 11
-25.247864534873
 21
247.435569537829
 31
0.0
 11
-25.35727795049244
 21
247.5175957688069
 31
0.0
 11
-25.43948885544285
 21
247.6393242516358
 31
0.0
 11
-25.49047933699937
 21
247.7948063464875
 31
0.0
 11
-25.5077577205596
 21
247.9764433382356
 31
0.0
  0
SPLINE
  5
217
330
1F
100
AcDbEntity
  8
0
  6
Continuous
 62
     7
100
AcDbSpline
210
0.0
220
0.0
230
1.0
 70
     8
 71
     3
 72
    15
 73
    11
 74
     9
 42
0.000000001
 43
0.0000000001
 44
0.00000001
 40
0.0
 40
0.0
 40
0.0
 40
0.0
 40
0.6169486000492471
 40
1.271312364667815
 40
1.949429318864937
 40
2.63554794070166
 40
3.313248926886293
 40
3.966816097939803
 40
4.582660253105701
 40
5.150913008643395
 40
5.150913008643395
 40
5.150913008643395
 40
5.150913008643395
 10
-38.94278656310399
 20
260.4820415067046
 30
0.0
 10
-38.95262953129629
 20
260.6878126197911
 30
0.0
 10
-38.97291241441383
 20
261.1118339396033
 30
0.0
 10
-39.12138013014276
 20
261.7477019477122
 30
0.0
 10
-39.34800801257826
 20
262.3824451335645
 30
0.0
 10
-39.65460591345614
 20
262.9920619499124
 30
0.0
 10
-40.0264271679623
 20
263.5546470476767
 30
0.0
 10
-40.45200145141415
 20
264.0461415634114
 30
0.0
 10
-40.91001724886481
 20
264.4588325319837
 30
0.0
 10
-41.25304157354741
 20
264.6559634106284
 30
0.0
 10
-41.4176602972569
 20
264.7505672870266
 30
0.0
 11
-38.94278656310399
 21
260.4820415067046
 31
0.0
 11
-38.99034068307249
 21
261.097154650786
 31
0.0
 11
-39.13117510872324
 21
261.7361832886388
 31
0.0
 11
-39.35987809062496
 21
262.3745699644276
 31
0.0
 11
-39.6676602972569
 21
262.9877818987163
 31
0.0
 11
-40.04269418529501
 21
263.5522535218134
 31
0.0
 11
-40.47056712200106
 21
264.0462927943225
 31
0.0
 11
-40.9348364064124
 21
264.4509136770594
 31
0.0
 11
-41.4176602972569
 21
264.7505672870266
 31
0.0
  0
SPLINE
  5
218
330
1F
100
AcDbEntity
  8
0
  6
Continuous
 62
     7
100
AcDbSpline
210
0.0
220
0.0
230
1.0
 70
     8
 71
     3
 72
    11
 73
     7
 74
     5
 42
0.000000001
 43
0.0000000001
 44
0.00000001
 40
0.0
 40
0.0
 40
0.0
 40
0.0
 40
0.7719116312703985
 40
1.596694247621116
 40
2.446551756596886
 40
3.290370336964541
 40
3.290370336964541
 40
3.290370336964541
 40
3.290370336964541
 10
-37.98819240850216
 20
260.9593385840055
 30
0.0
 10
-38.00346205376765
 20
261.2169079522437
 30
0.0
 10
-38.03504723194494
 20
261.749688533265
 30
0.0
 10
-38.26313251532302
 20
262.5380090891324
 30
0.0
 10
-38.59669722901204
 20
263.3124357688488
 30
0.0
 10
-38.9159802951402
 20
263.7795512043439
 30
0.0
 10
-39.07505262074335
 20
264.012276150662
 30
0.0
 11
-37.98819240850216
 21
260.9593385840055
 31
0.0
 11
-38.06140948030358
 21
261.727769991743
 31
0.0
 11
-38.27672694115539
 21
262.5239513519544
 31
0.0
 11
-38.62140643942306
 21
263.3007742607868
 31
0.0
 11
-39.07505262074335
 21
264.012276150662
 31
0.0
  0
SPLINE
  5
219
330
1F
100
AcDbEntity
  8
0
  6
Continuous
 62
     7
100
AcDbSpline
210
0.0
220
0.0
230
1.0
 70
     8
 71
     3
 72
    13
 73
     9
 74
     7
 42
0.000000001
 43
0.0000000001
 44
0.00000001
 40
0.0
 40
0.0
 40
0.0
 40
0.0
 40
0.1097023445181866
 40
0.2307340805991264
 40
0.3590936313665024
 40
0.4895825605943209
 40
0.6166831676516941
 40
0.7353915217358761
 40
0.7353915217358761
 40
0.7353915217358761
 40
0.7353915217358761
 10
-41.41766029725693
 20
262.1524910756733
 30
0.0
 10
-41.38620307477085
 20
262.1335695935527
 30
0.0
 10
-41.32003992730201
 20
262.0937725210873
 30
0.0
 10
-41.23679671680037
 20
262.0060637980436
 30
0.0
 10
-41.16418028892794
 20
261.9018720586176
 30
0.0
 10
-41.1090369657481
 20
261.7851527946112
 30
0.0
 10
-41.07190209182929
 20
261.6643134465333
 30
0.0
 10
-41.06664547422963
 20
261.5823056490015
 30
0.0
 10
-41.06410690666365
 20
261.5427016784844
 30
0.0
 11
-41.41766029725693
 21
262.1524910756733
 31
0.0
 11
-41.32615397070693
 21
262.0919832508649
 31
0.0
 11
-41.24088360196029
 21
262.0060900261327
 31
0.0
 11
-41.16766036390835
 21
261.9006645433236
 31
0.0
 11
-41.11147407940902
 21
261.7828916158032
 31
0.0
 11
-41.07615403735837
 21
261.6607971479738
 31
0.0
 11
-41.06410690666365
 21
261.5427016784844
 31
0.0
  0
SPLINE
  5
21A
330
1F
100
AcDbEntity
  8
0
  6
Continuous
 62
     7
100
AcDbSpline
210
0.0
220
0.0
230
1.0
 70
     8
 71
     3
 72
    15
 73
    11
 74
     9
 42
0.000000001
 43
0.0000000001
 44
0.00000001
 40
0.0
 40
0.0
 40
0.0
 40
0.0
 40
0.1295047739038956
 40
0.248282638714438
 40
0.3584639110545239
 40
0.4637974221612524
 40
0.6005438939769225
 40
0.7474331579237377
 40
0.9110629546382357
 40
1.093519904181278
 40
1.093519904181278
 40
1.093519904181278
 40
1.093519904181278
 10
-18.7902432992874
 20
267.7896832207761
 30
0.0
 10
-18.75067695029194
 20
267.8072542393685
 30
0.0
 10
-18.67482153704502
 20
267.8409408531468
 30
0.0
 10
-18.55600059014502
 20
267.8622770559854
 30
0.0
 10
-18.44361272073509
 20
267.8568198302353
 30
0.0
 10
-18.33071742240228
 20
267.8193179863777
 30
0.0
 10
-18.22510895949458
 20
267.7390625104352
 30
0.0
 10
-18.14270492250198
 20
267.6122036097932
 30
0.0
 10
-18.09172444719099
 20
267.4537811744088
 30
0.0
 10
-18.08610112602693
 20
267.3381643852055
 30
0.0
 10
-18.08313651810084
 20
267.2772112075849
 30
0.0
 11
-18.7902432992874
 21
267.7896832207761
 31
0.0
 11
-18.66979117968877
 21
267.8372518508162
 31
0.0
 11
-18.55285999597895
 21
267.8581152137992
 31
0.0
 11
-18.44286778305333
 21
267.8516633760702
 31
0.0
 11
-18.34302970378744
 21
267.8180850079916
 31
0.0
 11
-18.233616288168
 21
267.7360587770137
 31
0.0
 11
-18.15140538321759
 21
267.6143302941848
 31
0.0
 11
-18.10041490166107
 21
267.458848199333
 31
0.0
 11
-18.08313651810084
 21
267.2772112075849
 31
0.0
  0
SPLINE
  5
21B
330
1F
100
AcDbEntity
  8
0
  6
Continuous
 62
     7
100
AcDbSpline
210
0.0
220
0.0
230
1.0
 70
     8
 71
     3
 72
    15
 73
    11
 74
     9
 42
0.000000001
 43
0.0000000001
 44
0.00000001
 40
0.0
 40
0.0
 40
0.0
 40
0.0
 40
0.1824569495429851
 40
0.3460867462574787
 40
0.4929760102042408
 40
0.6297224820199023
 40
0.7350559931266726
 40
0.8452372654667518
 40
0.9640151302772877
 40
1.093519904181183
 40
1.093519904181183
 40
1.093519904181183
 40
1.093519904181183
 10
-16.52750159949045
 20
261.9928508403991
 30
0.0
 10
-16.53046620741653
 20
262.0538040180197
 30
0.0
 10
-16.53608952858062
 20
262.1694208072232
 30
0.0
 10
-16.58707000389155
 20
262.3278432426073
 30
0.0
 10
-16.66947404088418
 20
262.4547021432494
 30
0.0
 10
-16.77508250379187
 20
262.5349576191917
 30
0.0
 10
-16.88797780212467
 20
262.5724594630496
 30
0.0
 10
-17.00036567153462
 20
262.5779166887993
 30
0.0
 10
-17.11918661843462
 20
262.5565804859609
 30
0.0
 10
-17.19504203168154
 20
262.5228938721826
 30
0.0
 10
-17.234608380677
 20
262.5053228535902
 30
0.0
 11
-16.52750159949045
 21
261.9928508403991
 31
0.0
 11
-16.54477998305067
 21
262.1744878321472
 31
0.0
 11
-16.59577046460718
 21
262.3299699269989
 31
0.0
 11
-16.67798136955758
 21
262.4516984098278
 31
0.0
 11
-16.78739478517701
 21
262.5337246408057
 31
0.0
 11
-16.88723286444293
 21
262.5673030088843
 31
0.0
 11
-16.99722507736854
 21
262.5737548466133
 31
0.0
 11
-17.11415626107837
 21
262.5528914836303
 31
0.0
 11
-17.234608380677
 21
262.5053228535902
 31
0.0
  0
SPLINE
  5
21C
330
1F
100
AcDbEntity
  8
0
  6
Continuous
 62
     7
100
AcDbSpline
210
0.0
220
0.0
230
1.0
 70
     8
 71
     3
 72
    15
 73
    11
 74
     9
 42
0.000000001
 43
0.0000000001
 44
0.00000001
 40
0.0
 40
0.0
 40
0.0
 40
0.0
 40
0.1824569495430413
 40
0.3460867462575934
 40
0.4929760102043594
 40
0.6297224820199614
 40
0.7350559931267329
 40
0.8452372654668157
 40
0.9640151302773445
 40
1.093519904181254
 40
1.093519904181254
 40
1.093519904181254
 40
1.093519904181254
 10
-18.08313651810084
 20
262.9470841886627
 30
0.0
 10
-18.08017191017475
 20
262.8861310110421
 30
0.0
 10
-18.07454858901069
 20
262.7705142218387
 30
0.0
 10
-18.02356811369973
 20
262.6120917864545
 30
0.0
 10
-17.94116407670714
 20
262.4852328858123
 30
0.0
 10
-17.83555561379935
 20
262.4049774098701
 30
0.0
 10
-17.72266031546663
 20
262.3674755660122
 30
0.0
 10
-17.61027244605665
 20
262.3620183402624
 30
0.0
 10
-17.49145149915665
 20
262.3833545431008
 30
0.0
 10
-17.41559608590974
 20
262.4170411568792
 30
0.0
 10
-17.37602973691429
 20
262.4346121754716
 30
0.0
 11
-18.08313651810084
 21
262.9470841886627
 31
0.0
 11
-18.06585813454062
 21
262.7654471969146
 31
0.0
 11
-18.01486765298409
 21
262.6099651020628
 31
0.0
 11
-17.93265674803369
 21
262.4882366192339
 31
0.0
 11
-17.82324333241425
 21
262.4062103882561
 31
0.0
 11
-17.72340525314835
 21
262.3726320201774
 31
0.0
 11
-17.61341304022273
 21
262.3661801824485
 31
0.0
 11
-17.49648185651291
 21
262.3870435454314
 31
0.0
 11
-17.37602973691429
 21
262.4346121754716
 31
0.0
  0
SPLINE
  5
21D
330
1F
100
AcDbEntity
  8
0
  6
Continuous
 62
     7
100
AcDbSpline
210
0.0
220
0.0
230
1.0
 70
     8
 71
     3
 72
    13
 73
     9
 74
     7
 42
0.000000001
 43
0.0000000001
 44
0.00000001
 40
0.0
 40
0.0
 40
0.0
 40
0.0
 40
0.2374167079262007
 40
0.491617922554872
 40
0.7525957824343591
 40
1.0093148868638
 40
1.25137836192708
 40
1.470783052189137
 40
1.470783052189137
 40
1.470783052189137
 40
1.470783052189137
 10
-23.73999076759321
 20
264.4487840828387
 30
0.0
 10
-23.73491363246643
 20
264.5279920237923
 30
0.0
 10
-23.72440041214756
 20
264.6920076204867
 30
0.0
 10
-23.65013065774442
 20
264.9336863164249
 30
0.0
 10
-23.53984401305586
 20
265.1671248466346
 30
0.0
 10
-23.39461115491858
 20
265.3755083261713
 30
0.0
 10
-23.22812473615116
 20
265.5509257796438
 30
0.0
 10
-23.09579843173032
 20
265.6305199127639
 30
0.0
 10
-23.03288398640666
 20
265.6683628772165
 30
0.0
 11
-23.73999076759321
 21
264.4487840828387
 31
0.0
 11
-23.71589650620376
 21
264.6849750218174
 31
0.0
 11
-23.64525642210246
 21
264.9291639574762
 31
0.0
 11
-23.53288385310378
 21
265.1647098125172
 31
0.0
 11
-23.38643737699994
 21
265.3755607781354
 31
0.0
 11
-23.21589663950665
 21
265.5473472275997
 31
0.0
 11
-23.03288398640666
 21
265.6683628772165
 31
0.0
  0
SPLINE
  5
21E
330
1F
100
AcDbEntity
  8
0
  6
Continuous
 62
     7
100
AcDbSpline
210
0.0
220
0.0
230
1.0
 70
     8
 71
     3
 72
    13
 73
     9
 74
     7
 42
0.000000001
 43
0.0000000001
 44
0.00000001
 40
0.0
 40
0.0
 40
0.0
 40
0.0
 40
0.237416707926259
 40
0.4916179225549859
 40
0.7525957824343146
 40
1.009314886863754
 40
1.251378361927079
 40
1.47078305218907
 40
1.47078305218907
 40
1.47078305218907
 40
1.47078305218907
 10
-25.5077577205596
 20
260.9668243950022
 30
0.0
 10
-25.50268058543281
 20
261.0460323359558
 30
0.0
 10
-25.49216736511391
 20
261.2100479326501
 30
0.0
 10
-25.41789761071085
 20
261.4517266285885
 30
0.0
 10
-25.30761096602219
 20
261.685165158798
 30
0.0
 10
-25.16237810788495
 20
261.8935486383348
 30
0.0
 10
-24.99589168911759
 20
262.0689660918073
 30
0.0
 10
-24.8635653846967
 20
262.1485602249274
 30
0.0
 10
-24.80065093937304
 20
262.1864031893799
 30
0.0
 11
-25.5077577205596
 21
260.9668243950022
 31
0.0
 11
-25.48366345917013
 21
261.203015333981
 31
0.0
 11
-25.41302337506883
 21
261.4472042696399
 31
0.0
 11
-25.30065080607016
 21
261.6827501246807
 31
0.0
 11
-25.15420432996632
 21
261.8936010902988
 31
0.0
 11
-24.98366359247302
 21
262.0653875397633
 31
0.0
 11
-24.80065093937304
 21
262.1864031893799
 31
0.0
  0
SPLINE
  5
21F
330
1F
100
AcDbEntity
  8
0
  6
Continuous
 62
     7
100
AcDbSpline
210
0.0
220
0.0
230
1.0
 70
     8
 71
     3
 72
    13
 73
     9
 74
     7
 42
0.000000001
 43
0.0000000001
 44
0.00000001
 40
0.0
 40
0.0
 40
0.0
 40
0.0
 40
0.2194046902620541
 40
0.4614681653253387
 40
0.71818726975478
 40
0.9791651296342097
 40
1.233366344262937
 40
1.470783052189083
 40
1.470783052189083
 40
1.470783052189083
 40
1.470783052189083
 10
-24.44709754877977
 20
262.3631798846765
 30
0.0
 10
-24.38418310345612
 20
262.401022849129
 30
0.0
 10
-24.25185679903527
 20
262.4806169822493
 30
0.0
 10
-24.08537038026785
 20
262.6560344357218
 30
0.0
 10
-23.94013752213059
 20
262.8644179152585
 30
0.0
 10
-23.82985087744199
 20
263.0978564454681
 30
0.0
 10
-23.75558112303889
 20
263.3395351414064
 30
0.0
 10
-23.74506790272
 20
263.5035507381008
 30
0.0
 10
-23.73999076759321
 20
263.5827586790543
 30
0.0
 11
-24.44709754877977
 21
262.3631798846765
 31
0.0
 11
-24.26408489567979
 21
262.4841955342933
 31
0.0
 11
-24.09354415818649
 21
262.6559819837577
 31
0.0
 11
-23.94709768208265
 21
262.8668329493758
 31
0.0
 11
-23.83472511308398
 21
263.1023788044167
 31
0.0
 11
-23.76408502898267
 21
263.3465677400756
 31
0.0
 11
-23.73999076759321
 21
263.5827586790543
 31
0.0
  0
SPLINE
  5
220
330
1F
100
AcDbEntity
  8
0
  6
Continuous
 62
     7
100
AcDbSpline
210
0.0
220
0.0
230
1.0
 70
     8
 71
     3
 72
     9
 73
     5
 74
     3
 42
0.000000001
 43
0.0000000001
 44
0.00000001
 40
0.0
 40
0.0
 40
0.0
 40
0.0
 40
0.043230642579176
 40
0.0989960378187093
 40
0.0989960378187093
 40
0.0989960378187093
 40
0.0989960378187093
 10
-136.0576584441513
 20
93.79980010489457
 30
0.0
 10
-136.0432485810676
 20
93.80142482913972
 30
0.0
 10
-136.0102507098362
 20
93.80514538720396
 30
0.0
 10
-135.9801194596195
 20
93.81927805486126
 30
0.0
 10
-135.963146247621
 20
93.82723912969367
 30
0.0
 11
-136.0576584441513
 21
93.79980010489457
 31
0.0
 11
-136.014975516686
 21
93.80665986109435
 31
0.0
 11
-135.963146247621
 21
93.82723912969367
 31
0.0
  0
SPLINE
  5
221
330
1F
100
AcDbEntity
  8
0
  6
Continuous
 62
     7
100
AcDbSpline
210
0.0
220
0.0
230
1.0
 70
     8
 71
     3
 72
     9
 73
     5
 74
     3
 42
0.000000001
 43
0.0000000001
 44
0.00000001
 40
0.0
 40
0.0
 40
0.0
 40
0.0
 40
0.2676849599677398
 40
0.4614899318540402
 40
0.4614899318540402
 40
0.4614899318540402
 40
0.4614899318540402
 10
-136.2725974717444
 20
94.18851962288208
 30
0.0
 10
-136.2607077069994
 20
94.09513794969365
 30
0.0
 10
-136.2402096884122
 20
93.93414758342179
 30
0.0
 10
-136.1116483979072
 20
93.8395336762068
 30
0.0
 10
-136.0576584441513
 20
93.79980010489457
 30
0.0
 11
-136.2725974717444
 21
94.18851962288208
 31
0.0
 11
-136.2005700316467
 21
93.93070711904035
 31
0.0
 11
-136.0576584441513
 21
93.79980010489457
 31
0.0
  0
SPLINE
  5
222
330
1F
100
AcDbEntity
  8
0
  6
Continuous
 62
     7
100
AcDbSpline
210
0.0
220
0.0
230
1.0
 70
     8
 71
     3
 72
    10
 73
     6
 74
     4
 42
0.000000001
 43
0.0000000001
 44
0.00000001
 40
0.0
 40
0.0
 40
0.0
 40
0.0
 40
0.1664217218581272
 40
0.4119154029286557
 40
0.6408229549741095
 40
0.6408229549741095
 40
0.6408229549741095
 40
0.6408229549741095
 10
-136.0408901512184
 20
92.76778789439446
 30
0.0
 10
-136.0915560855531
 20
92.79265407704939
 30
0.0
 10
-136.2169608541075
 20
92.85420112651842
 30
0.0
 10
-136.3228110390976
 20
93.0561583204088
 30
0.0
 10
-136.3496069641746
 20
93.21124724837709
 30
0.0
 10
-136.3625364974748
 20
93.28608058504447
 30
0.0
 11
-136.0408901512184
 21
92.76778789439446
 31
0.0
 11
-136.1835241491283
 21
92.85353014198346
 31
0.0
 11
-136.3117423082205
 21
93.06287973859897
 31
0.0
 11
-136.3625364974748
 21
93.28608058504447
 31
0.0
  0
SPLINE
  5
223
330
1F
100
AcDbEntity
  8
0
  6
Continuous
 62
     7
100
AcDbSpline
210
0.0
220
0.0
230
1.0
 70
     8
 71
     3
 72
     9
 73
     5
 74
     3
 42
0.000000001
 43
0.0000000001
 44
0.00000001
 40
0.0
 40
0.0
 40
0.0
 40
0.0
 40
0.2880218424043297
 40
0.4632153590345958
 40
0.4632153590345958
 40
0.4632153590345958
 40
0.4632153590345958
 10
-135.8320486846919
 20
94.21290986714796
 30
0.0
 10
-135.8475063437882
 20
94.31289823538049
 30
0.0
 10
-135.8723663684111
 20
94.47370598784435
 30
0.0
 10
-135.9990677489777
 20
94.56984257073375
 30
0.0
 10
-136.0469877122849
 20
94.60620255593533
 30
0.0
 11
-135.8320486846919
 21
94.21290986714796
 31
0.0
 11
-135.9177956371891
 21
94.48787176148912
 31
0.0
 11
-136.0469877122849
 21
94.60620255593533
 31
0.0
  0
SPLINE
  5
224
330
1F
100
AcDbEntity
  8
0
  6
Continuous
 62
     7
100
AcDbSpline
210
0.0
220
0.0
230
1.0
 70
     8
 71
     3
 72
     9
 73
     5
 74
     3
 42
0.000000001
 43
0.0000000001
 44
0.00000001
 40
0.0
 40
0.0
 40
0.0
 40
0.0
 40
0.2060628911532116
 40
0.4917300885225509
 40
0.4917300885225509
 40
0.4917300885225509
 40
0.4917300885225509
 10
-136.0469877122849
 20
94.60620255593533
 30
0.0
 10
-136.1031190564936
 20
94.56259993820642
 30
0.0
 10
-136.2370658708583
 20
94.45855053084108
 30
0.0
 10
-136.2595408170461
 20
94.28774684744062
 30
0.0
 10
-136.2725974717444
 20
94.18851962288208
 30
0.0
 11
-136.0469877122849
 21
94.60620255593533
 31
0.0
 11
-136.1958063120635
 21
94.46367206600655
 31
0.0
 11
-136.2725974717444
 21
94.18851962288208
 31
0.0
  0
SPLINE
  5
225
330
1F
100
AcDbEntity
  8
0
  6
Continuous
 62
     7
100
AcDbSpline
210
0.0
220
0.0
230
1.0
 70
     8
 71
     3
 72
     9
 73
     5
 74
     3
 42
0.000000001
 43
0.0000000001
 44
0.00000001
 40
0.0
 40
0.0
 40
0.0
 40
0.0
 40
0.3733669548543352
 40
0.6367738187536689
 40
0.6367738187536689
 40
0.6367738187536689
 40
0.6367738187536689
 10
-135.7116218536291
 20
93.28608058504447
 30
0.0
 10
-135.7373175356442
 20
93.157523839397
 30
0.0
 10
-135.7811412954198
 20
92.93827153226108
 30
0.0
 10
-135.964883593398
 20
92.81767405346636
 30
0.0
 10
-136.0408901512184
 20
92.76778789439446
 30
0.0
 11
-135.7116218536291
 21
93.28608058504447
 31
0.0
 11
-135.836812404275
 21
92.93432753102245
 31
0.0
 11
-136.0408901512184
 21
92.76778789439446
 31
0.0
  0
SPLINE
  5
226
330
1F
100
AcDbEntity
  8
0
  6
Continuous
 62
     7
100
AcDbSpline
210
0.0
220
0.0
230
1.0
 70
     8
 71
     3
 72
     9
 73
     5
 74
     3
 42
0.000000001
 43
0.0000000001
 44
0.00000001
 40
0.0
 40
0.0
 40
0.0
 40
0.0
 40
0.3156019958018665
 40
0.5308500179613166
 40
0.5308500179613166
 40
0.5308500179613166
 40
0.5308500179613166
 10
-136.2817438133441
 20
103.0848610852206
 30
0.0
 10
-136.271045872828
 20
102.9740691179189
 30
0.0
 10
-136.2530516666981
 20
102.787714417946
 30
0.0
 10
-136.1075214249642
 20
102.6759221070746
 30
0.0
 10
-136.0485121025516
 20
102.6305927857685
 30
0.0
 11
-136.2817438133441
 21
103.0848610852206
 31
0.0
 11
-136.2045715560966
 21
102.7788397391971
 31
0.0
 11
-136.0485121025516
 21
102.6305927857685
 31
0.0
  0
SPLINE
  5
227
330
1F
100
AcDbEntity
  8
0
  6
Continuous
 62
     7
100
AcDbSpline
210
0.0
220
0.0
230
1.0
 70
     8
 71
     3
 72
     9
 73
     5
 74
     3
 42
0.000000001
 43
0.0000000001
 44
0.00000001
 40
0.0
 40
0.0
 40
0.0
 40
0.0
 40
0.2157013040991132
 40
0.3751478277200319
 40
0.3751478277200319
 40
0.3751478277200319
 40
0.3751478277200319
 10
-136.2238169832126
 20
93.28150741424462
 30
0.0
 10
-136.2134888691025
 20
93.20627696176366
 30
0.0
 10
-136.1955261904425
 20
93.07543612559942
 30
0.0
 10
-136.0891509015571
 20
93.0007505184511
 30
0.0
 10
-136.0439389317517
 20
92.969007409588
 30
0.0
 11
-136.2238169832126
 21
93.28150741424462
 31
0.0
 11
-136.1636035676812
 21
93.07438088676794
 31
0.0
 11
-136.0439389317517
 21
92.969007409588
 31
0.0
  0
SPLINE
  5
228
330
1F
100
AcDbEntity
  8
0
  6
Continuous
 62
     7
100
AcDbSpline
210
0.0
220
0.0
230
1.0
 70
     8
 71
     3
 72
    10
 73
     6
 74
     4
 42
0.000000001
 43
0.0000000001
 44
0.00000001
 40
0.0
 40
0.0
 40
0.0
 40
0.0
 40
0.1299347894105048
 40
0.3368025688032392
 40
0.5650979866774039
 40
0.5650979866774039
 40
0.5650979866774039
 40
0.5650979866774039
 10
-136.0500364928182
 20
103.5741903608048
 30
0.0
 10
-136.0874898465966
 20
103.5508265849484
 30
0.0
 10
-136.1845722722468
 20
103.4902655796801
 30
0.0
 10
-136.2544577677467
 20
103.3023852327376
 30
0.0
 10
-136.2723547175162
 20
103.159710917625
 30
0.0
 10
-136.2817438133441
 20
103.0848610852206
 30
0.0
 11
-136.0500364928182
 21
103.5741903608048
 31
0.0
 11
-136.1541467021383
 21
103.4964464572073
 31
0.0
 11
-136.2436905155774
 21
103.3099627145911
 31
0.0
 11
-136.2817438133441
 21
103.0848610852206
 31
0.0
  0
SPLINE
  5
229
330
1F
100
AcDbEntity
  8
0
  6
Continuous
 62
     7
100
AcDbSpline
210
0.0
220
0.0
230
1.0
 70
     8
 71
     3
 72
     9
 73
     5
 74
     3
 42
0.000000001
 43
0.0000000001
 44
0.00000001
 40
0.0
 40
0.0
 40
0.0
 40
0.0
 40
0.2203976522838856
 40
0.3947563457546377
 40
0.3947563457546377
 40
0.3947563457546377
 40
0.3947563457546377
 10
-136.3381462532089
 20
103.5330318236062
 30
0.0
 10
-136.3042407401112
 20
103.6034144213207
 30
0.0
 10
-136.2435122378575
 20
103.7294773530144
 30
0.0
 10
-136.1093112919162
 20
103.7613376213202
 30
0.0
 10
-136.0500364928182
 20
103.7754098759984
 30
0.0
 11
-136.3381462532089
 21
103.5330318236062
 31
0.0
 11
-136.2135273489129
 21
103.7148153629004
 31
0.0
 11
-136.0500364928182
 21
103.7754098759984
 31
0.0
  0
SPLINE
  5
22A
330
1F
100
AcDbEntity
  8
0
  6
Continuous
 62
     7
100
AcDbSpline
210
0.0
220
0.0
230
1.0
 70
     8
 71
     3
 72
     9
 73
     5
 74
     3
 42
0.000000001
 43
0.0000000001
 44
0.00000001
 40
0.0
 40
0.0
 40
0.0
 40
0.0
 40
0.2327830053276981
 40
0.4383173162774473
 40
0.4383173162774473
 40
0.4383173162774473
 40
0.4383173162774473
 10
-136.3625364974748
 20
93.28608058504447
 30
0.0
 10
-136.3528937829984
 20
93.36441472669273
 30
0.0
 10
-136.3347370748227
 20
93.51191350720896
 30
0.0
 10
-136.2509234690557
 20
93.6342178505519
 30
0.0
 10
-136.2116218610797
 20
93.69156839596472
 30
0.0
 11
-136.3625364974748
 21
93.28608058504447
 31
0.0
 11
-136.3150898504263
 21
93.51397692990376
 31
0.0
 11
-136.2116218610797
 21
93.69156839596472
 31
0.0
  0
SPLINE
  5
22B
330
1F
100
AcDbEntity
  8
0
  6
Continuous
 62
     7
100
AcDbSpline
210
0.0
220
0.0
230
1.0
 70
     8
 71
     3
 72
     9
 73
     5
 74
     3
 42
0.000000001
 43
0.0000000001
 44
0.00000001
 40
0.0
 40
0.0
 40
0.0
 40
0.0
 40
0.2344639073095389
 40
0.5448186822796373
 40
0.5448186822796373
 40
0.5448186822796373
 40
0.5448186822796373
 10
-136.2116218610797
 20
93.69156839596472
 30
0.0
 10
-136.2642595535571
 20
93.75169672581755
 30
0.0
 10
-136.3865725980577
 20
93.89141562863048
 30
0.0
 10
-136.4052503987871
 20
94.07778279699869
 30
0.0
 10
-136.4158901568064
 20
94.18394645208222
 30
0.0
 11
-136.2116218610797
 21
93.69156839596472
 31
0.0
 11
-136.3503413753419
 21
93.88059278902529
 31
0.0
 11
-136.4158901568064
 21
94.18394645208222
 31
0.0
  0
SPLINE
  5
22C
330
1F
100
AcDbEntity
  8
0
  6
Continuous
 62
     7
100
AcDbSpline
210
0.0
220
0.0
230
1.0
 70
     8
 71
     3
 72
     9
 73
     5
 74
     3
 42
0.000000001
 43
0.0000000001
 44
0.00000001
 40
0.0
 40
0.0
 40
0.0
 40
0.0
 40
0.2551185628909003
 40
0.4815437611969857
 40
0.4815437611969857
 40
0.4815437611969857
 40
0.4815437611969857
 10
-136.4250364984061
 20
103.0619952312213
 30
0.0
 10
-136.4223609946484
 20
103.1475972821659
 30
0.0
 10
-136.4173108832547
 20
103.309173658215
 30
0.0
 10
-136.3634649782531
 20
103.4614366954411
 30
0.0
 10
-136.3381462532089
 20
103.5330318236062
 30
0.0
 11
-136.4250364984061
 21
103.0619952312213
 31
0.0
 11
-136.4033139371068
 21
103.3161873081798
 31
0.0
 11
-136.3381462532089
 21
103.5330318236062
 31
0.0
  0
SPLINE
  5
22D
330
1F
100
AcDbEntity
  8
0
  6
Continuous
 62
     7
100
AcDbSpline
210
0.0
220
0.0
230
1.0
 70
     8
 71
     3
 72
     9
 73
     5
 74
     3
 42
0.000000001
 43
0.0000000001
 44
0.00000001
 40
0.0
 40
0.0
 40
0.0
 40
0.0
 40
0.012407637323559
 40
0.0215856815980076
 40
0.0215856815980076
 40
0.0215856815980076
 40
0.0215856815980076
 10
-135.9783901502871
 20
93.6123001021006
 30
0.0
 10
-135.982438937472
 20
93.61318264174595
 30
0.0
 10
-135.9894826531277
 20
93.61471798397132
 30
0.0
 10
-135.9966739403091
 20
93.61516066650371
 30
0.0
 10
-135.9997316140198
 20
93.61534888263382
 30
0.0
 11
-135.9783901502871
 21
93.6123001021006
 31
0.0
 11
-135.9905852724201
 21
93.61458668750052
 31
0.0
 11
-135.9997316140198
 21
93.61534888263382
 31
0.0
  0
SPLINE
  5
22E
330
1F
100
AcDbEntity
  8
0
  6
Continuous
 62
     7
100
AcDbSpline
210
0.0
220
0.0
230
1.0
 70
     8
 71
     3
 72
     9
 73
     5
 74
     3
 42
0.000000001
 43
0.0000000001
 44
0.00000001
 40
0.0
 40
0.0
 40
0.0
 40
0.0
 40
0.1778270393360254
 40
0.4215187421895733
 40
0.4215187421895733
 40
0.4215187421895733
 40
0.4215187421895733
 10
-135.9997316140198
 20
93.61534888263382
 30
0.0
 10
-136.0540325508668
 20
93.58540455545098
 30
0.0
 10
-136.1827467240834
 20
93.51442492429861
 30
0.0
 10
-136.2087714024473
 20
93.36683389609536
 30
0.0
 10
-136.2238169832126
 20
93.28150741424462
 30
0.0
 11
-135.9997316140198
 21
93.61534888263382
 31
0.0
 11
-136.1443581405651
 21
93.51188089328717
 31
0.0
 11
-136.2238169832126
 21
93.28150741424462
 31
0.0
  0
SPLINE
  5
22F
330
1F
100
AcDbEntity
  8
0
  6
Continuous
 62
     7
100
AcDbSpline
210
0.0
220
0.0
230
1.0
 70
     8
 71
     3
 72
     9
 73
     5
 74
     3
 42
0.000000001
 43
0.0000000001
 44
0.00000001
 40
0.0
 40
0.0
 40
0.0
 40
0.0
 40
0.1664146621053715
 40
0.4263328389532542
 40
0.4263328389532542
 40
0.4263328389532542
 40
0.4263328389532542
 10
-136.0439389317517
 20
92.969007409588
 30
0.0
 10
-135.998278013981
 20
93.00351413152484
 30
0.0
 10
-135.8813006634359
 20
93.09191590335035
 30
0.0
 10
-135.8592261435028
 20
93.24000429448924
 30
0.0
 10
-135.8457681970914
 20
93.33028790277636
 30
0.0
 11
-136.0439389317517
 21
92.969007409588
 31
0.0
 11
-135.9214160640723
 21
93.08162174053436
 31
0.0
 11
-135.8457681970914
 21
93.33028790277636
 31
0.0
  0
SPLINE
  5
230
330
1F
100
AcDbEntity
  8
0
  6
Continuous
 62
     7
100
AcDbSpline
210
0.0
220
0.0
230
1.0
 70
     8
 71
     3
 72
     9
 73
     5
 74
     3
 42
0.000000001
 43
0.0000000001
 44
0.00000001
 40
0.0
 40
0.0
 40
0.0
 40
0.0
 40
0.137518673101546
 40
0.2487077637209281
 40
0.2487077637209281
 40
0.2487077637209281
 40
0.2487077637209281
 10
-135.8777803926904
 20
102.5391293697715
 30
0.0
 10
-135.908426442805
 20
102.5028016040327
 30
0.0
 10
-135.9638510039258
 20
102.4371014703088
 30
0.0
 10
-136.0476387226009
 20
102.4212265268351
 30
0.0
 10
-136.0850974689504
 20
102.4141293679088
 30
0.0
 11
-135.8777803926904
 21
102.5391293697715
 31
0.0
 11
-135.9783901502872
 21
102.4453793683745
 31
0.0
 11
-136.0850974689504
 21
102.4141293679088
 31
0.0
  0
SPLINE
  5
231
330
1F
100
AcDbEntity
  8
0
  6
Continuous
 62
     7
100
AcDbSpline
210
0.0
220
0.0
230
1.0
 70
     8
 71
     3
 72
     9
 73
     5
 74
     3
 42
0.000000001
 43
0.0000000001
 44
0.00000001
 40
0.0
 40
0.0
 40
0.0
 40
0.0
 40
0.1303456725657959
 40
0.2867250527893916
 40
0.2867250527893916
 40
0.2867250527893916
 40
0.2867250527893916
 10
-136.0485121025516
 20
102.6305927857685
 30
0.0
 10
-136.0077610251275
 20
102.648955858844
 30
0.0
 10
-135.9181197417506
 20
102.6893496444501
 30
0.0
 10
-135.873275141991
 20
102.7775890848448
 30
0.0
 10
-135.8488169776246
 20
102.8257147398956
 30
0.0
 11
-136.0485121025516
 21
102.6305927857685
 31
0.0
 11
-135.9355166740385
 21
102.6955699208831
 31
0.0
 11
-135.8488169776246
 21
102.8257147398956
 31
0.0
  0
SPLINE
  5
232
330
1F
100
AcDbEntity
  8
0
  6
Continuous
 62
     7
100
AcDbSpline
210
0.0
220
0.0
230
1.0
 70
     8
 71
     3
 72
     9
 73
     5
 74
     3
 42
0.000000001
 43
0.0000000001
 44
0.00000001
 40
0.0
 40
0.0
 40
0.0
 40
0.0
 40
0.2721197387112155
 40
0.4476068895995362
 40
0.4476068895995362
 40
0.4476068895995362
 40
0.4476068895995362
 10
-135.839670636025
 20
103.1961415746837
 30
0.0
 10
-135.8543166851813
 20
103.290550715301
 30
0.0
 10
-135.8784078342053
 20
103.4458433061974
 30
0.0
 10
-136.0016992838097
 20
103.5380429174289
 30
0.0
 10
-136.0500364928182
 20
103.5741903608048
 30
0.0
 11
-135.839670636025
 21
103.1961415746837
 31
0.0
 11
-135.9202727713724
 21
103.456050115142
 31
0.0
 11
-136.0500364928182
 21
103.5741903608048
 31
0.0
  0
SPLINE
  5
233
330
1F
100
AcDbEntity
  8
0
  6
Continuous
 62
     7
100
AcDbSpline
210
0.0
220
0.0
230
1.0
 70
     8
 71
     3
 72
     9
 73
     5
 74
     3
 42
0.000000001
 43
0.0000000001
 44
0.00000001
 40
0.0
 40
0.0
 40
0.0
 40
0.0
 40
0.2922074728361047
 40
0.6864681905595716
 40
0.6864681905595716
 40
0.6864681905595716
 40
0.6864681905595716
 10
-136.0500364928182
 20
103.7754098759984
 30
0.0
 10
-135.9648708157386
 20
103.7206520750914
 30
0.0
 10
-135.7647954250735
 20
103.5920123379492
 30
0.0
 10
-135.7223056014134
 20
103.3541150771529
 30
0.0
 10
-135.6979023412295
 20
103.2174830384163
 30
0.0
 11
-136.0500364928182
 21
103.7754098759984
 31
0.0
 11
-135.8230928918755
 21
103.5913397513043
 31
0.0
 11
-135.6979023412295
 21
103.2174830384163
 31
0.0
  0
SPLINE
  5
234
330
1F
100
AcDbEntity
  8
0
  6
Continuous
 62
     7
100
AcDbSpline
210
0.0
220
0.0
230
1.0
 70
     8
 71
     3
 72
     9
 73
     5
 74
     3
 42
0.000000001
 43
0.0000000001
 44
0.00000001
 40
0.0
 40
0.0
 40
0.0
 40
0.0
 40
0.2085799929901046
 40
0.4013311773105201
 40
0.4013311773105201
 40
0.4013311773105201
 40
0.4013311773105201
 10
-139.0698535662842
 20
84.21138546198016
 30
0.0
 10
-139.0284865195898
 20
84.26755074274008
 30
0.0
 10
-138.9488916913969
 20
84.37561899616165
 30
0.0
 10
-138.8483328552549
 20
84.46445233733016
 30
0.0
 10
-138.8000364890929
 20
84.50711717370403
 30
0.0
 11
-139.0698535662842
 21
84.21138546198016
 31
0.0
 11
-138.9400898448384
 21
84.3746857692916
 31
0.0
 11
-138.8000364890929
 21
84.50711717370403
 31
0.0
  0
SPLINE
  5
235
330
1F
100
AcDbEntity
  8
0
  6
Continuous
 62
     7
100
AcDbSpline
210
0.0
220
0.0
230
1.0
 70
     8
 71
     3
 72
     9
 73
     5
 74
     3
 42
0.000000001
 43
0.0000000001
 44
0.00000001
 40
0.0
 40
0.0
 40
0.0
 40
0.0
 40
0.3032495724342507
 40
0.5966554098565848
 40
0.5966554098565848
 40
0.5966554098565848
 40
0.5966554098565848
 10
-138.8000364890929
 20
84.26931229211168
 30
0.0
 10
-138.8671714656112
 20
84.19279597820024
 30
0.0
 10
-138.9992621449011
 20
84.04224712259062
 30
0.0
 10
-139.07826161312
 20
83.85826250247196
 30
0.0
 10
-139.1171096645493
 20
83.76778789439446
 30
0.0
 11
-138.8000364890929
 21
84.26931229211168
 31
0.0
 11
-138.9877270406702
 21
84.03112631295265
 31
0.0
 11
-139.1171096645493
 21
83.76778789439446
 31
0.0
  0
SPLINE
  5
236
330
1F
100
AcDbEntity
  8
0
  6
Continuous
 62
     7
100
AcDbSpline
210
0.0
220
0.0
230
1.0
 70
     8
 71
     3
 72
     9
 73
     5
 74
     3
 42
0.000000001
 43
0.0000000001
 44
0.00000001
 40
0.0
 40
0.0
 40
0.0
 40
0.0
 40
0.2923803254779913
 40
0.6885086499346369
 40
0.6885086499346369
 40
0.6885086499346369
 40
0.6885086499346369
 10
-136.0469877122849
 20
94.80894646139545
 30
0.0
 10
-135.9631365320117
 20
94.75249756779289
 30
0.0
 10
-135.765680500069
 20
94.6195694871816
 30
0.0
 10
-135.7226560998909
 20
94.38174983427177
 30
0.0
 10
-135.6979023412295
 20
94.24492206274691
 30
0.0
 11
-136.0469877122849
 21
94.80894646139545
 31
0.0
 11
-135.8232834406588
 21
94.62068426346816
 31
0.0
 11
-135.6979023412295
 21
94.24492206274691
 31
0.0
  0
SPLINE
  5
237
330
1F
100
AcDbEntity
  8
0
  6
Continuous
 62
     7
100
AcDbSpline
210
0.0
220
0.0
230
1.0
 70
     8
 71
     3
 72
     9
 73
     5
 74
     3
 42
0.000000001
 43
0.0000000001
 44
0.00000001
 40
0.0
 40
0.0
 40
0.0
 40
0.0
 40
0.3116854481468926
 40
0.7579204692015318
 40
0.7579204692015318
 40
0.7579204692015318
 40
0.7579204692015318
 10
-136.0850974689504
 20
102.4141293679088
 30
0.0
 10
-136.1694336065308
 20
102.4807245410088
 30
0.0
 10
-136.3745124150696
 20
102.6426629604205
 30
0.0
 10
-136.4063133286422
 20
102.9065993957896
 30
0.0
 10
-136.4250364984061
 20
103.0619952312213
 30
0.0
 11
-136.0850974689504
 21
102.4141293679088
 31
0.0
 11
-136.3088017405765
 21
102.6311644321185
 31
0.0
 11
-136.4250364984061
 21
103.0619952312213
 31
0.0
  0
SPLINE
  5
238
330
1F
100
AcDbEntity
  8
0
  6
Continuous
 62
     7
100
AcDbSpline
210
0.0
220
0.0
230
1.0
 70
     8
 71
     3
 72
     9
 73
     5
 74
     3
 42
0.000000001
 43
0.0000000001
 44
0.00000001
 40
0.0
 40
0.0
 40
0.0
 40
0.0
 40
0.4287058800445936
 40
0.7541048467964655
 40
0.7541048467964655
 40
0.7541048467964655
 40
0.7541048467964655
 10
-136.4158901568064
 20
94.18394645208222
 30
0.0
 10
-136.3931422804224
 20
94.33276094735386
 30
0.0
 10
-136.3531281545372
 20
94.59452952507226
 30
0.0
 10
-136.1392688019075
 20
94.74431394745292
 30
0.0
 10
-136.0469877122849
 20
94.80894646139545
 30
0.0
 11
-136.4158901568064
 21
94.18394645208222
 31
0.0
 11
-136.2914618012937
 21
94.59419798258568
 31
0.0
 11
-136.0469877122849
 21
94.80894646139545
 31
0.0
  0
SPLINE
  5
239
330
1F
100
AcDbEntity
  8
0
  6
Continuous
 62
     7
100
AcDbSpline
210
0.0
220
0.0
230
1.0
 70
     8
 71
     3
 72
     9
 73
     5
 74
     3
 42
0.000000001
 43
0.0000000001
 44
0.00000001
 40
0.0
 40
0.0
 40
0.0
 40
0.0
 40
0.0869437155758314
 40
0.171667455508747
 40
0.171667455508747
 40
0.171667455508747
 40
0.171667455508747
 10
-148.6780852677635
 20
94.77540987552986
 30
0.0
 10
-148.6783025032873
 20
94.74637454900767
 30
0.0
 10
-148.6787314474666
 20
94.68904527015721
 30
0.0
 10
-148.6885053879263
 20
94.63255703416324
 30
0.0
 10
-148.6933291704297
 20
94.60467816566869
 30
0.0
 11
-148.6780852677635
 21
94.77540987552986
 31
0.0
 11
-148.6811340482968
 21
94.68851963033265
 31
0.0
 11
-148.6933291704297
 21
94.60467816566869
 31
0.0
  0
SPLINE
  5
23A
330
1F
100
AcDbEntity
  8
0
  6
Continuous
 62
     7
100
AcDbSpline
210
0.0
220
0.0
230
1.0
 70
     8
 71
     3
 72
     9
 73
     5
 74
     3
 42
0.000000001
 43
0.0000000001
 44
0.00000001
 40
0.0
 40
0.0
 40
0.0
 40
0.0
 40
0.2892810433162699
 40
0.6298979591215222
 40
0.6298979591215222
 40
0.6298979591215222
 40
0.6298979591215222
 10
-148.6933291704297
 20
94.60467816566869
 30
0.0
 10
-148.7238558203083
 20
94.51287591949136
 30
0.0
 10
-148.790326404078
 20
94.31298018953584
 30
0.0
 10
-148.9005137312091
 20
94.13326270526947
 30
0.0
 10
-148.9600974670877
 20
94.03608059622034
 30
0.0
 11
-148.6933291704297
 21
94.60467816566869
 31
0.0
 11
-148.7941294768098
 21
94.33352724699408
 31
0.0
 11
-148.9600974670877
 21
94.03608059622034
 31
0.0
  0
SPLINE
  5
23B
330
1F
100
AcDbEntity
  8
0
  6
Continuous
 62
     7
100
AcDbSpline
210
0.0
220
0.0
230
1.0
 70
     8
 71
     3
 72
     9
 73
     5
 74
     3
 42
0.000000001
 43
0.0000000001
 44
0.00000001
 40
0.0
 40
0.0
 40
0.0
 40
0.0
 40
0.1941377895041023
 40
0.4740321566755366
 40
0.4740321566755366
 40
0.4740321566755366
 40
0.4740321566755366
 10
-149.0576584441513
 20
92.97053179985458
 30
0.0
 10
-149.0031632654173
 20
93.00997739333533
 30
0.0
 10
-148.8701007411805
 20
93.10629291409569
 30
0.0
 10
-148.8528846959484
 20
93.2730084910231
 30
0.0
 10
-148.8427194165582
 20
93.37144643997503
 30
0.0
 11
-149.0576584441513
 21
92.97053179985458
 31
0.0
 11
-148.9136035639559
 21
93.10067661886706
 31
0.0
 11
-148.8427194165582
 21
93.37144643997503
 31
0.0
  0
SPLINE
  5
23C
330
1F
100
AcDbEntity
  8
0
  6
Continuous
 62
     7
100
AcDbSpline
210
0.0
220
0.0
230
1.0
 70
     8
 71
     3
 72
     9
 73
     5
 74
     3
 42
0.000000001
 43
0.0000000001
 44
0.00000001
 40
0.0
 40
0.0
 40
0.0
 40
0.0
 40
0.4138356766490688
 40
0.7094655249676969
 40
0.7094655249676969
 40
0.7094655249676969
 40
0.7094655249676969
 10
-148.703999902296
 20
93.34553180544252
 30
0.0
 10
-148.7260698747219
 20
93.20054531892993
 30
0.0
 10
-148.7639058861292
 20
92.95198552624406
 30
0.0
 10
-148.9734087045788
 20
92.82196614983643
 30
0.0
 10
-149.0607072246845
 20
92.76778789439446
 30
0.0
 11
-148.703999902296
 21
93.34553180544252
 31
0.0
 11
-148.828618806592
 21
92.9509052751719
 31
0.0
 11
-149.0607072246845
 21
92.76778789439446
 31
0.0
  0
SPLINE
  5
23D
330
1F
100
AcDbEntity
  8
0
  6
Continuous
 62
     7
100
AcDbSpline
210
0.0
220
0.0
230
1.0
 70
     8
 71
     3
 72
     9
 73
     5
 74
     3
 42
0.000000001
 43
0.0000000001
 44
0.00000001
 40
0.0
 40
0.0
 40
0.0
 40
0.0
 40
0.2380515634122244
 40
0.4201158127735101
 40
0.4201158127735101
 40
0.4201158127735101
 40
0.4201158127735101
 10
-149.2649755204113
 20
93.31656839037679
 30
0.0
 10
-149.2526554555227
 20
93.23366864524895
 30
0.0
 10
-149.2309128633676
 20
93.08736634308252
 30
0.0
 10
-149.1100405143802
 20
93.0058557707953
 30
0.0
 10
-149.0576584441513
 20
92.97053179985458
 30
0.0
 11
-149.2649755204113
 21
93.31656839037679
 31
0.0
 11
-149.1961874096301
 21
93.08867204551746
 31
0.0
 11
-149.0576584441513
 21
92.97053179985458
 31
0.0
  0
SPLINE
  5
23E
330
1F
100
AcDbEntity
  8
0
  6
Continuous
 62
     7
100
AcDbSpline
210
0.0
220
0.0
230
1.0
 70
     8
 71
     3
 72
     9
 73
     5
 74
     3
 42
0.000000001
 43
0.0000000001
 44
0.00000001
 40
0.0
 40
0.0
 40
0.0
 40
0.0
 40
0.2983184036514683
 40
0.6811263537455801
 40
0.6811263537455801
 40
0.6811263537455801
 40
0.6811263537455801
 10
-149.0607072246845
 20
92.76778789439446
 30
0.0
 10
-149.1481734981937
 20
92.8236941465187
 30
0.0
 10
-149.3478781733945
 20
92.95134039682542
 30
0.0
 10
-149.38361190376
 20
93.18906148247693
 30
0.0
 10
-149.4036950346735
 20
93.32266595144328
 30
0.0
 11
-149.0607072246845
 21
92.76778789439446
 31
0.0
 11
-149.2916523500771
 21
92.9566217386717
 31
0.0
 11
-149.4036950346735
 21
93.32266595144328
 31
0.0
  0
SPLINE
  5
23F
330
1F
100
AcDbEntity
  8
0
  6
Continuous
 62
     7
100
AcDbSpline
210
0.0
220
0.0
230
1.0
 70
     8
 71
     3
 72
     9
 73
     5
 74
     3
 42
0.000000001
 43
0.0000000001
 44
0.00000001
 40
0.0
 40
0.0
 40
0.0
 40
0.0
 40
0.4625106101753175
 40
0.7863270608258593
 40
0.7863270608258593
 40
0.7863270608258593
 40
0.7863270608258593
 10
-148.9600974670877
 20
94.03608059622034
 30
0.0
 10
-149.0427255857715
 20
93.90415706951781
 30
0.0
 10
-149.1832039135204
 20
93.67987023040372
 30
0.0
 10
-149.2411236625933
 20
93.42253947711357
 30
0.0
 10
-149.2649755204113
 20
93.31656839037679
 30
0.0
 11
-148.9600974670877
 21
94.03608059622034
 31
0.0
 11
-149.1794191166973
 21
93.62887784625006
 31
0.0
 11
-149.2649755204113
 21
93.31656839037679
 31
0.0
  0
SPLINE
  5
240
330
1F
100
AcDbEntity
  8
0
  6
Continuous
 62
     7
100
AcDbSpline
210
0.0
220
0.0
230
1.0
 70
     8
 71
     3
 72
     9
 73
     5
 74
     3
 42
0.000000001
 43
0.0000000001
 44
0.00000001
 40
0.0
 40
0.0
 40
0.0
 40
0.0
 40
0.2763704334169253
 40
0.4393863369009521
 40
0.4393863369009521
 40
0.4393863369009521
 40
0.4393863369009521
 10
-149.0789999078839
 20
94.15498303701649
 30
0.0
 10
-149.0281710029644
 20
94.23211571981008
 30
0.0
 10
-148.9473609072901
 20
94.35474479182972
 30
0.0
 10
-148.8888264231958
 20
94.48923311820847
 30
0.0
 10
-148.867109660824
 20
94.53912938420414
 30
0.0
 11
-149.0789999078839
 21
94.15498303701649
 31
0.0
 11
-148.9353261252552
 21
94.3910729795589
 31
0.0
 11
-148.867109660824
 21
94.53912938420414
 31
0.0
  0
SPLINE
  5
241
330
1F
100
AcDbEntity
  8
0
  6
Continuous
 62
     7
100
AcDbSpline
210
0.0
220
0.0
230
1.0
 70
     8
 71
     3
 72
     9
 73
     5
 74
     3
 42
0.000000001
 43
0.0000000001
 44
0.00000001
 40
0.0
 40
0.0
 40
0.0
 40
0.0
 40
0.3760305460393998
 40
0.900012267881868
 40
0.900012267881868
 40
0.900012267881868
 40
0.900012267881868
 10
-149.4036950346735
 20
93.32266595144328
 30
0.0
 10
-149.3812983729783
 20
93.44695545528243
 30
0.0
 10
-149.3276929468762
 20
93.74443680979743
 30
0.0
 10
-149.1705105585818
 20
94.0039158860746
 30
0.0
 10
-149.0789999078839
 20
94.15498303701649
 30
0.0
 11
-149.4036950346735
 21
93.32266595144328
 31
0.0
 11
-149.3184244541345
 21
93.68890071299816
 31
0.0
 11
-149.0789999078839
 21
94.15498303701649
 31
0.0
  0
SPLINE
  5
242
330
1F
100
AcDbEntity
  8
0
  6
Continuous
 62
     7
100
AcDbSpline
210
0.0
220
0.0
230
1.0
 70
     8
 71
     3
 72
    10
 73
     6
 74
     4
 42
0.000000001
 43
0.0000000001
 44
0.00000001
 40
0.0
 40
0.0
 40
0.0
 40
0.0
 40
0.1773115845402341
 40
0.4556121061163324
 40
0.7558402154634094
 40
0.7558402154634094
 40
0.7558402154634094
 40
0.7558402154634094
 10
-146.0927194202835
 20
110.4781537586383
 30
0.0
 10
-146.1441371799492
 20
110.5094150900981
 30
0.0
 10
-146.2762580010717
 20
110.58974285597
 30
0.0
 10
-146.3766210524744
 20
110.8379659631899
 30
0.0
 10
-146.4024738325984
 20
111.0276058044649
 30
0.0
 10
-146.4158901568064
 20
111.1260196219508
 30
0.0
 11
-146.0927194202835
 21
110.4781537586383
 31
0.0
 11
-146.236125023143
 21
110.5824333446547
 31
0.0
 11
-146.3619154495884
 21
110.8306831225183
 31
0.0
 11
-146.4158901568064
 21
111.1260196219508
 31
0.0
  0
SPLINE
  5
243
330
1F
100
AcDbEntity
  8
0
  6
Continuous
 62
     7
100
AcDbSpline
210
0.0
220
0.0
230
1.0
 70
     8
 71
     3
 72
    10
 73
     6
 74
     4
 42
0.000000001
 43
0.0000000001
 44
0.00000001
 40
0.0
 40
0.0
 40
0.0
 40
0.0
 40
0.3061582808907716
 40
0.6112956411051023
 40
0.7985470791300662
 40
0.7985470791300662
 40
0.7985470791300662
 40
0.7985470791300662
 10
-146.4158901568064
 20
111.1260196219508
 30
0.0
 10
-146.4019306587308
 20
111.2261745379027
 30
0.0
 10
-146.374058199738
 20
111.4261503911211
 30
0.0
 10
-146.2718101408252
 20
111.6915485968748
 30
0.0
 10
-146.1277045350761
 20
111.7766015306515
 30
0.0
 10
-146.0729023468174
 20
111.8089464613955
 30
0.0
 11
-146.4158901568064
 21
111.1260196219508
 31
0.0
 11
-146.3613696802337
 21
111.4272843057534
 31
0.0
 11
-146.2255860287072
 21
111.7005453757693
 31
0.0
 11
-146.0729023468174
 21
111.8089464613955
 31
0.0
  0
SPLINE
  5
244
330
1F
100
AcDbEntity
  8
0
  6
Continuous
 62
     7
100
AcDbSpline
210
0.0
220
0.0
230
1.0
 70
     8
 71
     3
 72
    10
 73
     6
 74
     4
 42
0.000000001
 43
0.0000000001
 44
0.00000001
 40
0.0
 40
0.0
 40
0.0
 40
0.0
 40
0.2126585872277862
 40
0.4262538474859034
 40
0.5492684514073105
 40
0.5492684514073105
 40
0.5492684514073105
 40
0.5492684514073105
 10
-145.847292587358
 20
111.1275440122174
 30
0.0
 10
-145.8569002364183
 20
111.1971596253607
 30
0.0
 10
-145.876157864256
 20
111.3366974794322
 30
0.0
 10
-145.9413548665591
 20
111.5197900683633
 30
0.0
 10
-146.0354619726511
 20
111.584191387789
 30
0.0
 10
-146.0698535662842
 20
111.6077269462019
 30
0.0
 11
-145.847292587358
 21
111.1275440122174
 31
0.0
 11
-145.8839155930227
 21
111.3370253462633
 31
0.0
 11
-145.9739110776519
 21
111.5307358279212
 31
0.0
 11
-146.0698535662842
 21
111.6077269462019
 31
0.0
  0
SPLINE
  5
245
330
1F
100
AcDbEntity
  8
0
  6
Continuous
 62
     7
100
AcDbSpline
210
0.0
220
0.0
230
1.0
 70
     8
 71
     3
 72
    10
 73
     6
 74
     4
 42
0.000000001
 43
0.0000000001
 44
0.00000001
 40
0.0
 40
0.0
 40
0.0
 40
0.0
 40
0.2209590076437609
 40
0.6016487549830722
 40
1.087228376553113
 40
1.087228376553113
 40
1.087228376553113
 40
1.087228376553113
 10
-146.0729023468174
 20
111.8089464613955
 30
0.0
 10
-146.0098453611436
 20
111.7678024862237
 30
0.0
 10
-145.8381476559404
 20
111.6557716406505
 30
0.0
 10
-145.7310518198328
 20
111.2825391854697
 30
0.0
 10
-145.7059021826761
 20
110.9985960565203
 30
0.0
 10
-145.6918047801631
 20
110.8394342518267
 30
0.0
 11
-146.0729023468174
 21
111.8089464613955
 31
0.0
 11
-145.898896020828
 21
111.6727675975776
 31
0.0
 11
-145.7530062264228
 21
111.3211415760778
 31
0.0
 11
-145.6918047801631
 21
110.8394342518267
 31
0.0
  0
SPLINE
  5
246
330
1F
100
AcDbEntity
  8
0
  6
Continuous
 62
     7
100
AcDbSpline
210
0.0
220
0.0
230
1.0
 70
     8
 71
     3
 72
     9
 73
     5
 74
     3
 42
0.000000001
 43
0.0000000001
 44
0.00000001
 40
0.0
 40
0.0
 40
0.0
 40
0.0
 40
0.5012408101046266
 40
0.8549769582576392
 40
0.8549769582576392
 40
0.8549769582576392
 40
0.8549769582576392
 10
-145.6918047801631
 20
110.8394342518267
 30
0.0
 10
-145.6922648900582
 20
110.6711836297351
 30
0.0
 10
-145.6930497294173
 20
110.3841950188184
 30
0.0
 10
-145.7751958715295
 20
110.1099230637136
 30
0.0
 10
-145.8091828306926
 20
109.9964464343871
 30
0.0
 11
-145.6918047801631
 21
110.8394342518267
 31
0.0
 11
-145.7211492927955
 21
110.3390531468095
 31
0.0
 11
-145.8091828306926
 21
109.9964464343871
 31
0.0
  0
SPLINE
  5
247
330
1F
100
AcDbEntity
  8
0
  6
Continuous
 62
     7
100
AcDbSpline
210
0.0
220
0.0
230
1.0
 70
     8
 71
     3
 72
     9
 73
     5
 74
     3
 42
0.000000001
 43
0.0000000001
 44
0.00000001
 40
0.0
 40
0.0
 40
0.0
 40
0.0
 40
0.2888712002856757
 40
0.7276177898543287
 40
0.7276177898543287
 40
0.7276177898543287
 40
0.7276177898543287
 10
-145.963146247621
 20
110.0345561910525
 30
0.0
 10
-145.9285987808589
 20
110.1250132937719
 30
0.0
 10
-145.8415795638181
 20
110.3528594715536
 30
0.0
 10
-145.8318300033765
 20
110.597441451292
 30
0.0
 10
-145.8259511236254
 20
110.7449220552963
 30
0.0
 11
-145.963146247621
 21
110.0345561910525
 31
0.0
 11
-145.8716828316239
 21
110.308565341477
 31
0.0
 11
-145.8259511236254
 21
110.7449220552963
 31
0.0
  0
SPLINE
  5
248
330
1F
100
AcDbEntity
  8
0
  6
Continuous
 62
     7
100
AcDbSpline
210
0.0
220
0.0
230
1.0
 70
     8
 71
     3
 72
     9
 73
     5
 74
     3
 42
0.000000001
 43
0.0000000001
 44
0.00000001
 40
0.0
 40
0.0
 40
0.0
 40
0.0
 40
0.2212777618204599
 40
0.3874531237106607
 40
0.3874531237106607
 40
0.3874531237106607
 40
0.3874531237106607
 10
-145.8259511236254
 20
110.7449220552963
 30
0.0
 10
-145.8601716781042
 20
110.6764206391855
 30
0.0
 10
-145.9200912280465
 20
110.5564759843142
 30
0.0
 10
-146.0409038889101
 20
110.5016627034544
 30
0.0
 10
-146.0927194202835
 20
110.4781537586383
 30
0.0
 11
-145.8259511236254
 21
110.7449220552963
 31
0.0
 11
-145.9484739913048
 21
110.560661381819
 31
0.0
 11
-146.0927194202835
 21
110.4781537586383
 31
0.0
  0
SPLINE
  5
249
330
1F
100
AcDbEntity
  8
0
  6
Continuous
 62
     7
100
AcDbSpline
210
0.0
220
0.0
230
1.0
 70
     8
 71
     3
 72
     9
 73
     5
 74
     3
 42
0.000000001
 43
0.0000000001
 44
0.00000001
 40
0.0
 40
0.0
 40
0.0
 40
0.0
 40
0.0627712903567984
 40
0.1356018148818808
 40
0.1356018148818808
 40
0.1356018148818808
 40
0.1356018148818808
 10
-146.0774755176173
 20
109.969007409588
 30
0.0
 10
-146.0561755073641
 20
109.9724650826519
 30
0.0
 10
-146.0101621212884
 20
109.9799345462478
 30
0.0
 10
-145.9795745521726
 20
110.0154702651591
 30
0.0
 10
-145.963146247621
 20
110.0345561910525
 30
0.0
 11
-146.0774755176173
 21
109.969007409588
 31
0.0
 11
-146.0168810045192
 21
109.9853946049541
 31
0.0
 11
-145.963146247621
 21
110.0345561910525
 31
0.0
  0
SPLINE
  5
24A
330
1F
100
AcDbEntity
  8
0
  6
Continuous
 62
     7
100
AcDbSpline
210
0.0
220
0.0
230
1.0
 70
     8
 71
     3
 72
     9
 73
     5
 74
     3
 42
0.000000001
 43
0.0000000001
 44
0.00000001
 40
0.0
 40
0.0
 40
0.0
 40
0.0
 40
0.2099927100393445
 40
0.3763713677179709
 40
0.3763713677179709
 40
0.3763713677179709
 40
0.3763713677179709
 10
-145.8091828306926
 20
109.9964464343871
 30
0.0
 10
-145.8425100767367
 20
109.930043772047
 30
0.0
 10
-145.9022427402529
 20
109.8110298403457
 30
0.0
 10
-146.0301009005972
 20
109.7810435992003
 30
0.0
 10
-146.086621859217
 20
109.7677878943945
 30
0.0
 11
-145.8091828306926
 21
109.9964464343871
 31
0.0
 11
-145.9303718568887
 21
109.8249525293926
 31
0.0
 11
-146.086621859217
 21
109.7677878943945
 31
0.0
  0
SPLINE
  5
24B
330
1F
100
AcDbEntity
  8
0
  6
Continuous
 62
     7
100
AcDbSpline
210
0.0
220
0.0
230
1.0
 70
     8
 71
     3
 72
     9
 73
     5
 74
     3
 42
0.000000001
 43
0.0000000001
 44
0.00000001
 40
0.0
 40
0.0
 40
0.0
 40
0.0
 40
0.2030510733295239
 40
0.5016084233321745
 40
0.5016084233321745
 40
0.5016084233321745
 40
0.5016084233321745
 10
-146.0652803954844
 20
110.694617176498
 30
0.0
 10
-146.0112760429801
 20
110.7390144881203
 30
0.0
 10
-145.8778660855595
 20
110.8486916628853
 30
0.0
 10
-145.8587001452487
 20
111.0234987959834
 30
0.0
 10
-145.847292587358
 20
111.1275440122174
 30
0.0
 11
-146.0652803954844
 21
110.694617176498
 31
0.0
 11
-145.9219877104223
 21
110.83848150791
 31
0.0
 11
-145.847292587358
 21
111.1275440122174
 31
0.0
  0
SPLINE
  5
24C
330
1F
100
AcDbEntity
  8
0
  6
Continuous
 62
     7
100
AcDbSpline
210
0.0
220
0.0
230
1.0
 70
     8
 71
     3
 72
     9
 73
     5
 74
     3
 42
0.000000001
 43
0.0000000001
 44
0.00000001
 40
0.0
 40
0.0
 40
0.0
 40
0.0
 40
0.3094746871984916
 40
0.5116173983725559
 40
0.5116173983725559
 40
0.5116173983725559
 40
0.5116173983725559
 10
-146.2771706425442
 20
111.1412635246169
 30
0.0
 10
-146.2677115432663
 20
111.0330251069925
 30
0.0
 10
-146.2520739307484
 20
110.8540875155575
 30
0.0
 10
-146.1181818595126
 20
110.7397804795674
 30
0.0
 10
-146.0652803954844
 20
110.694617176498
 30
0.0
 11
-146.2771706425442
 21
111.1412635246169
 31
0.0
 11
-146.2055243000132
 21
110.84019644696
 31
0.0
 11
-146.0652803954844
 21
110.694617176498
 31
0.0
  0
SPLINE
  5
24D
330
1F
100
AcDbEntity
  8
0
  6
Continuous
 62
     7
100
AcDbSpline
210
0.0
220
0.0
230
1.0
 70
     8
 71
     3
 72
    10
 73
     6
 74
     4
 42
0.000000001
 43
0.0000000001
 44
0.00000001
 40
0.0
 40
0.0
 40
0.0
 40
0.0
 40
0.1173067531938055
 40
0.3117422755087734
 40
0.5309817998731348
 40
0.5309817998731348
 40
0.5309817998731348
 40
0.5309817998731348
 10
-146.0698535662842
 20
111.6077269462019
 30
0.0
 10
-146.102840876827
 20
111.5854594518638
 30
0.0
 10
-146.1905045259718
 20
111.5262836522421
 30
0.0
 10
-146.2523365097978
 20
111.3488875997147
 30
0.0
 10
-146.268568184519
 20
111.2131838207771
 30
0.0
 10
-146.2771706425442
 20
111.1412635246169
 30
0.0
 11
-146.0698535662842
 21
111.6077269462019
 31
0.0
 11
-146.1615428178763
 21
111.5345562134042
 31
0.0
 11
-146.2423919609058
 21
111.3577269424766
 31
0.0
 11
-146.2771706425442
 21
111.1412635246169
 31
0.0
  0
SPLINE
  5
24E
330
1F
100
AcDbEntity
  8
0
  6
Continuous
 62
     7
100
AcDbSpline
210
0.0
220
0.0
230
1.0
 70
     8
 71
     3
 72
     9
 73
     5
 74
     3
 42
0.000000001
 43
0.0000000001
 44
0.00000001
 40
0.0
 40
0.0
 40
0.0
 40
0.0
 40
0.0999391556048779
 40
0.1787683346522874
 40
0.1787683346522874
 40
0.1787683346522874
 40
0.1787683346522874
 10
-146.2131462513463
 20
110.0741903379846
 30
0.0
 10
-146.1957555357559
 20
110.0436505747264
 30
0.0
 10
-146.1646475030589
 20
109.9890219239754
 30
0.0
 10
-146.1041516163094
 20
109.9751321829372
 30
0.0
 10
-146.0774755176173
 20
109.969007409588
 30
0.0
 11
-146.2131462513463
 21
110.0741903379846
 31
0.0
 11
-146.1517895431149
 21
109.9953031416872
 31
0.0
 11
-146.0774755176173
 21
109.969007409588
 31
0.0
  0
SPLINE
  5
24F
330
1F
100
AcDbEntity
  8
0
  6
Continuous
 62
     7
100
AcDbSpline
210
0.0
220
0.0
230
1.0
 70
     8
 71
     3
 72
     9
 73
     5
 74
     3
 42
0.000000001
 43
0.0000000001
 44
0.00000001
 40
0.0
 40
0.0
 40
0.0
 40
0.0
 40
0.1272489276022192
 40
0.2183575515797039
 40
0.2183575515797039
 40
0.2183575515797039
 40
0.2183575515797039
 10
-146.2634511301446
 20
110.2860805850445
 30
0.0
 10
-146.2579777312558
 20
110.2438443671527
 30
0.0
 10
-146.2485854279833
 20
110.1713675555318
 30
0.0
 10
-146.2235797547772
 20
110.1027998686289
 30
0.0
 10
-146.2131462513463
 20
110.0741903379846
 30
0.0
 11
-146.2634511301446
 21
110.2860805850445
 31
0.0
 11
-146.2417285688454
 21
110.1606994856152
 31
0.0
 11
-146.2131462513463
 21
110.0741903379846
 31
0.0
  0
SPLINE
  5
250
330
1F
100
AcDbEntity
  8
0
  6
Continuous
 62
     7
100
AcDbSpline
210
0.0
220
0.0
230
1.0
 70
     8
 71
     3
 72
     9
 73
     5
 74
     3
 42
0.000000001
 43
0.0000000001
 44
0.00000001
 40
0.0
 40
0.0
 40
0.0
 40
0.0
 40
0.2555233579591586
 40
0.6107384358539925
 40
0.6107384358539925
 40
0.6107384358539925
 40
0.6107384358539925
 10
-146.086621859217
 20
109.7677878943945
 30
0.0
 10
-146.1606662654716
 20
109.8161048673637
 30
0.0
 10
-146.3376432813323
 20
109.9315895582516
 30
0.0
 10
-146.3755502147142
 20
110.1431921256256
 30
0.0
 10
-146.397597473607
 20
110.2662635115784
 30
0.0
 11
-146.086621859217
 21
109.7677878943945
 31
0.0
 11
-146.2844114963106
 21
109.9295638114393
 31
0.0
 11
-146.397597473607
 21
110.2662635115784
 31
0.0
  0
ARC
  5
251
102
{ACAD_REACTORS
330
28C
102
}
330
1F
100
AcDbEntity
  8
1
  6
Continuous
 62
     7
100
AcDbCircle
 10
-18.32369931125729
 20
12.83333333333326
 30
0.0
 40
0.1666666666667028
100
AcDbArc
 50
209.9999999999634
 51
330.0000000000195
  0
ARC
  5
252
102
{ACAD_REACTORS
330
28D
102
}
330
1F
100
AcDbEntity
  8
1
  6
Continuous
 62
     7
100
AcDbCircle
 10
-20.65703264459069
 20
10.2700211480327
 30
0.0
 40
0.6666666666666003
100
AcDbArc
 50
180.0000000000104
 51
240.018360631158
  0
ARC
  5
253
330
1F
100
AcDbEntity
  8
1
  6
Continuous
 62
     7
100
AcDbCircle
 10
-26.65684751081719
 20
12.5
 30
0.0
 40
0.1666666666665959
100
AcDbArc
 50
119.9816393689121
 51
240.0183606311065
  0
ARC
  5
254
330
1F
100
AcDbEntity
  8
1
  6
Continuous
 62
     7
100
AcDbCircle
 10
-9.99055111169739
 20
12.5
 30
0.0
 40
0.1666666666665779
100
AcDbArc
 50
299.9816393688268
 51
60.01836063115454
  0
ARC
  5
255
102
{ACAD_REACTORS
330
28F
102
}
330
1F
100
AcDbEntity
  8
1
  6
Continuous
 62
     7
100
AcDbCircle
 10
-15.65703264459069
 20
14.92250016016737
 30
0.0
 40
0.3333333333333598
100
AcDbArc
 50
60.0183606311539
 51
180.0
  0
ARC
  5
256
102
{ACAD_REACTORS
330
28F
102
}
330
1F
100
AcDbEntity
  8
1
  6
Continuous
 62
     7
100
AcDbCircle
 10
-15.65703264459069
 20
10.07749983983257
 30
0.0
 40
0.3333333333332007
100
AcDbArc
 50
180.0
 51
299.9816393688464
  0
ARC
  5
257
330
1F
100
AcDbEntity
  8
1
  6
Continuous
 62
     7
100
AcDbCircle
 10
-145.0109510923891
 20
170.2520945612749
 30
0.0
 40
0.0490206755352575
100
AcDbArc
 50
119.9816393688737
 51
240.0183606310765
  0
ARC
  5
258
330
1F
100
AcDbEntity
  8
1
  6
Continuous
 62
     7
100
AcDbCircle
 10
-140.1089924434596
 20
170.2520945612749
 30
0.0
 40
0.0490206755352263
100
AcDbArc
 50
299.9816393690098
 51
60.01836063104
  0
MTEXT
  5
25A
330
1F
100
AcDbEntity
  8
1
 62
     7
100
AcDbMText
 10
-194.0000000000001
 20
151.4999999999998
 30
0.0
 40
4.0
 41
0.0
 71
     5
 72
     1
  1
Diritti riservati      All rights reserved
  7
CONVERTER_11
 11
0.0
 21
1.0
 31
0.0
 73
     1
 44
1.32052821128451
  0
MTEXT
  5
25B
330
1F
100
AcDbEntity
  8
1
 62
     7
100
AcDbMText
 10
-187.0
 20
16.26063942075598
 30
0.0
 40
3.0
 41
0.0
 71
     4
 72
     1
  1
Date
  7
CONVERTER_11
 73
     1
 44
1.32052821128451
  0
MTEXT
  5
25C
330
1F
100
AcDbEntity
  8
1
 62
     7
100
AcDbMText
 10
-176.4
 20
16.26063942075598
 30
0.0
 40
3.0
 41
0.0
 71
     4
 72
     1
  1
29/11/06
  7
CONVERTER_11
 73
     1
 44
1.32052821128451
  0
MTEXT
  5
25D
330
1F
100
AcDbEntity
  8
1
 62
     7
100
AcDbMText
 10
-187.0
 20
8.75
 30
0.0
 40
3.0
 41
0.0
 71
     4
 72
     1
  1
Sign.
  7
CONVERTER_11
 73
     1
 44
1.32052821128451
  0
MTEXT
  5
25E
330
1F
100
AcDbEntity
  8
1
 62
     7
100
AcDbMText
 10
-176.4
 20
8.75
 30
0.0
 40
3.0
 41
0.0
 71
     4
 72
     1
  1
T.Tedeschi
  7
CONVERTER_11
 73
     1
 44
1.32052821128451
  0
MTEXT
  5
25F
330
1F
100
AcDbEntity
  8
1
 62
     7
100
AcDbMText
 10
-40.3236993112573
 20
16.26063942075598
 30
0.0
 40
3.0
 41
0.0
 71
     5
 72
     1
  1
Scale
  7
CONVERTER_11
 73
     1
 44
1.32052821128451
  0
MTEXT
  5
260
330
1F
100
AcDbEntity
  8
1
 62
     7
100
AcDbMText
 10
-40.3236993112573
 20
10.0606394207561
 30
0.0
 40
4.5
 41
0.0
 71
     5
 72
     1
  1
1:1
  7
CONVERTER_11
 73
     1
 44
1.32052821128451
  0
MTEXT
  5
262
330
1F
100
AcDbEntity
  8
1
 62
     7
100
AcDbMText
 10
-152.7236993112573
 20
12.65304352946998
 30
0.0
 40
4.5
 41
0.0
 71
     4
 72
     1
  1
CX 06 CM\Pmale modular, crimp, 6P 16A 500V
  7
CONVERTER_12
 73
     1
 44
0.90036014405762
  0
TEXT
  5
264
330
1F
100
AcDbEntity
  8
0
 62
     7
100
AcDbText
 10
-137.6629108454961
 20
253.8894842884969
 30
0.0
 40
1.4
  1
1
 41
0.95
  7
CONVERTER_13
100
AcDbText
  0
MTEXT
  5
266
330
1F
100
AcDbEntity
  8
0
 62
     7
100
AcDbMText
 10
-149.409945026655
 20
246.2875035635628
 30
0.0
 40
1.4
 41
0.0
 71
     8
 72
     1
  1
2
  7
CONVERTER_14
 73
     1
 44
1.32052821128451
  0
MTEXT
  5
267
330
1F
100
AcDbEntity
  8
0
 62
     7
100
AcDbMText
 10
-135.709945026655
 20
243.8270532955078
 30
0.0
 40
1.4
 41
0.0
 71
     8
 72
     1
  1
3
  7
CONVERTER_14
 73
     1
 44
1.32052821128451
  0
MTEXT
  5
268
330
1F
100
AcDbEntity
  8
0
 62
     7
100
AcDbMText
 10
-149.409945026655
 20
238.5413734976058
 30
0.0
 40
1.4
 41
0.0
 71
     8
 72
     1
  1
4
  7
CONVERTER_14
 73
     1
 44
1.32052821128451
  0
MTEXT
  5
269
330
1F
100
AcDbEntity
  8
0
 62
     7
100
AcDbMText
 10
-135.709945026655
 20
236.1903165872968
 30
0.0
 40
1.4
 41
0.0
 71
     8
 72
     1
  1
5
  7
CONVERTER_14
 73
     1
 44
1.32052821128451
  0
TEXT
  5
26A
330
1F
100
AcDbEntity
  8
0
 62
     7
100
AcDbText
 10
-138.0149937072204
 20
226.6648942259778
 30
0.0
 40
1.4
  1
6
 41
0.95
  7
CONVERTER_13
100
AcDbText
  0
DIMENSION
  5
275
330
1F
100
AcDbEntity
  8
1
100
AcDbDimension
  2
*D1
 10
-149.909945026655
 20
196.128513169316
 30
0.0
 11
-142.559945026655
 21
199.778513169316
 31
0.0
 70
    32
  1
<>
 71
     5
 42
-1.0
 53
0.00013888888889
  3
ME10_DIM_10
100
AcDbAlignedDimension
 13
-135.209945026655
 23
187.3965957437743
 33
0.0
 14
-149.909945026655
 24
187.396595743774
 34
0.0
100
AcDbRotatedDimension
  0
DIMENSION
  5
280
330
1F
100
AcDbEntity
  8
1
100
AcDbDimension
  2
*D2
 10
-73.98994438599041
 20
197.960155162351
 30
0.0
 11
-58.98994438599038
 21
201.460155162351
 31
0.0
 70
    32
  1
<>
 71
     5
 42
-1.0
 53
0.00013888888889
  3
ME10_DIM_11
100
AcDbAlignedDimension
 13
-43.98994438599036
 23
187.396595743774
 33
0.0
 14
-73.98994438599041
 24
187.396595743774
 34
0.0
100
AcDbRotatedDimension
  0
DIMENSION
  5
28B
330
1F
100
AcDbEntity
  8
1
100
AcDbDimension
  2
*D3
 10
-28.9741391380084
 20
187.396595743774
 30
0.0
 11
-32.4741391380084
 21
170.396595743774
 31
0.0
 70
    32
  1
<>
 71
     5
 42
-1.0
 53
90.0
  3
ME10_DIM_12
100
AcDbAlignedDimension
 13
-43.98994438599036
 23
153.396595743774
 33
0.0
 14
-41.98994438599036
 24
187.396595743774
 34
0.0
 50
90.0
100
AcDbRotatedDimension
  0
HATCH
  5
28C
330
1F
100
AcDbEntity
  8
1
  6
Continuous
 62
     7
100
AcDbHatch
 10
0.0
 20
0.0
 30
0.0
210
0.0
220
0.0
230
1.0
  2
SOLID
 70
     1
 71
     1
 91
        1
 92
        1
 93
       13
 72
     2
 10
-19.72539976544869
 20
15.73121731203457
 40
0.2649662124752854
 50
30.00000000001921
 51
180.0
 73
     1
 72
     1
 10
-19.99036597792409
 20
15.73121731203457
 11
-19.99036597792409
 21
10.84758507263291
 72
     2
 10
-19.65703264459069
 20
10.84758507263291
 40
0.3333333333333997
 50
180.0
 51
360.0
 73
     1
 72
     1
 10
-19.32369931125729
 20
10.84758507263291
 11
-19.32369931125729
 21
14.23205080756878
 72
     1
 10
-19.32369931125729
 20
14.23205080756878
 11
-18.46803687855478
 21
12.75
 72
     2
 10
-18.32369931125729
 20
12.83333333333326
 40
0.1666666666667028
 50
209.9999999999634
 51
330.0000000000195
 73
     1
 72
     1
 10
-18.1793617439599
 20
12.75
 11
-17.32369931125729
 21
14.23205080756878
 72
     1
 10
-17.32369931125729
 20
14.23205080756878
 11
-17.32369931125729
 21
9.308269070601796
 72
     2
 10
-16.99036597792389
 20
9.308269070601796
 40
0.3333333333333997
 50
180.0
 51
360.0
 73
     1
 72
     1
 10
-16.65703264459069
 20
9.308269070601796
 11
-16.65703264459069
 21
15.73121731203457
 72
     2
 10
-16.921998857066
 20
15.73121731203457
 40
0.2649662124753114
 50
0.0
 51
149.9999999999689
 73
     1
 72
     1
 10
-17.15146632821399
 20
15.86370041827229
 11
-18.32369931125729
 21
13.83333333333326
 72
     1
 10
-18.32369931125729
 20
13.83333333333326
 11
-19.49593229430059
 21
15.86370041827229
 97
       13
330
5F
330
1DD
330
5E
330
1DC
330
54
330
55
330
251
330
56
330
57
330
1DB
330
5C
330
1DA
330
5D
 75
     0
 76
     1
 98
        1
 10
0.0
 20
0.0
  0
HATCH
  5
28D
330
1F
100
AcDbEntity
  8
1
  6
Continuous
 62
     7
100
AcDbHatch
 10
0.0
 20
0.0
 30
0.0
210
0.0
220
0.0
230
1.0
  2
SOLID
 70
     1
 71
     1
 91
        1
 92
        1
 93
        7
 72
     1
 10
-20.65703264459069
 20
14.92250016016737
 11
-20.65703264459069
 21
10.2700211480327
 72
     1
 10
-20.65703264459069
 20
10.2700211480327
 11
-18.4904584934275
 21
9.020074522361597
 72
     2
 10
-18.65703264459069
 20
8.731345993678701
 40
0.3333333333333673
 50
299.9816393688464
 51
479.9816393688495
 73
     0
 72
     1
 10
-18.8236067957539
 20
8.442617464995806
 11
-20.99018094691701
 21
9.692564090666906
 72
     2
 10
-20.65703264459069
 20
10.2700211480327
 40
0.6666666666666003
 50
119.981639368842
 51
179.9999999999896
 73
     0
 72
     1
 10
-21.32369931125729
 20
10.27002114803258
 11
-21.32369931125729
 21
14.92250016016737
 72
     2
 10
-20.99036597792409
 20
14.92250016016737
 40
0.3333333333333997
 50
180.0
 51
360.0
 73
     0
 97
        7
330
61
330
62
330
1DF
330
63
330
252
330
60
330
1DE
 75
     0
 76
     1
 98
        1
 10
0.0
 20
0.0
  0
HATCH
  5
28E
330
1F
100
AcDbEntity
  8
1
  6
Continuous
 62
     7
100
AcDbHatch
 10
0.0
 20
0.0
 30
0.0
210
0.0
220
0.0
230
1.0
  2
SOLID
 70
     1
 71
     1
 91
        1
 92
        1
 93
        4
 72
     1
 10
-21.99036597792409
 20
14.15326939093666
 11
-21.99036597792409
 21
10.84673060906317
 72
     2
 10
-22.32369931125729
 20
10.84673060906317
 40
0.3333333333333997
 50
0.0
 51
180.0
 73
     0
 72
     1
 10
-22.65703264459069
 20
10.84673060906317
 11
-22.65703264459069
 21
14.15326939093666
 72
     2
 10
-22.32369931125729
 20
14.15326939093666
 40
0.3333333333332007
 50
180.0
 51
360.0
 73
     0
 97
        4
330
64
330
1E1
330
65
330
1E0
 75
     0
 76
     1
 98
        1
 10
0.0
 20
0.0
  0
HATCH
  5
28F
330
1F
100
AcDbEntity
  8
1
  6
Continuous
 62
     7
100
AcDbHatch
 10
0.0
 20
0.0
 30
0.0
210
0.0
220
0.0
230
1.0
  2
SOLID
 70
     1
 71
     1
 91
        1
 92
        1
 93
       14
 72
     1
 10
-14.4902734624205
 20
13.86454086225376
 11
-15.32369931125729
 21
14.345363467352
 72
     1
 10
-15.32369931125729
 20
14.345363467352
 11
-15.32369931125729
 21
12.83333333333326
 72
     1
 10
-15.32369931125729
 20
12.83333333333326
 11
-14.32369931125729
 21
12.83333333333326
 72
     2
 10
-14.32369931125729
 20
12.5
 40
0.3333333333334298
 50
270.0
 51
450.0
 73
     0
 72
     1
 10
-14.32369931125729
 20
12.16666666666657
 11
-15.32369931125729
 21
12.16666666666657
 72
     1
 10
-15.32369931125729
 20
12.16666666666657
 11
-15.32369931125729
 21
10.654636532648
 72
     1
 10
-15.32369931125729
 20
10.654636532648
 11
-14.4902734624205
 21
11.13545913774618
 72
     2
 10
-14.32369931125729
 20
10.84673060906317
 40
0.3333333333333121
 50
240.0183606311602
 51
420.0183606311651
 73
     0
 72
     1
 10
-14.15712516009418
 20
10.55800208038028
 11
-15.4904584934275
 21
9.788771311149674
 72
     2
 10
-15.65703264459069
 20
10.07749983983257
 40
0.3333333333332007
 50
60.01836063115361
 51
180.0
 73
     0
 72
     1
 10
-15.99036597792389
 20
10.07749983983257
 11
-15.99036597792389
 21
14.92250016016737
 72
     2
 10
-15.65703264459069
 20
14.92250016016737
 40
0.3333333333333598
 50
180.0
 51
299.9816393688461
 73
     0
 72
     1
 10
-15.4904584934275
 20
15.21122868885027
 11
-14.15712516009418
 21
14.44199791961938
 72
     2
 10
-14.32369931125729
 20
14.15326939093666
 40
0.333333333333372
 50
299.9816393688496
 51
479.9816393688491
 73
     0
 97
       14
330
66
330
255
330
53
330
256
330
6D
330
1E4
330
6C
330
6B
330
6A
330
1E3
330
69
330
68
330
67
330
1E2
 75
     0
 76
     1
 98
        1
 10
0.0
 20
0.0
  0
ENDSEC
  0
SECTION
  2
OBJECTS
  0
DICTIONARY
  5
C
330
0
100
AcDbDictionary
281
     1
  3
ACAD_GROUP
350
D
  3
ACAD_LAYOUT
350
1A
  3
ACAD_MATERIAL
350
3B
  3
ACAD_MLEADERSTYLE
350
292
  3
ACAD_MLINESTYLE
350
17
  3
ACAD_PLOTSETTINGS
350
19
  3
ACAD_PLOTSTYLENAME
350
E
  3
ACAD_VISUALSTYLE
350
2A
  3
AcDbVariableDictionary
350
290
  0
DICTIONARY
  5
D
102
{ACAD_REACTORS
330
C
102
}
330
C
100
AcDbDictionary
281
     1
  0
DICTIONARY
  5
1A
102
{ACAD_REACTORS
330
C
102
}
330
C
100
AcDbDictionary
281
     1
  3
Layout1
350
1E
  3
Layout2
350
26
  3
Model
350
22
  0
DICTIONARY
  5
3B
102
{ACAD_REACTORS
330
C
102
}
330
C
100
AcDbDictionary
281
     1
  3
ByBlock
350
3D
  3
ByLayer
350
3C
  3
Global
350
3E
  0
DICTIONARY
  5
292
102
{ACAD_REACTORS
330
C
102
}
330
C
100
AcDbDictionary
281
     1
  0
DICTIONARY
  5
17
102
{ACAD_REACTORS
330
C
102
}
330
C
100
AcDbDictionary
281
     1
  3
Standard
350
18
  0
DICTIONARY
  5
19
102
{ACAD_REACTORS
330
C
102
}
330
C
100
AcDbDictionary
281
     1
  0
ACDBDICTIONARYWDFLT
  5
E
102
{ACAD_REACTORS
330
C
102
}
330
C
100
AcDbDictionary
281
     1
  3
Normal
350
F
100
AcDbDictionaryWithDefault
340
F
  0
DICTIONARY
  5
2A
102
{ACAD_REACTORS
330
C
102
}
330
C
100
AcDbDictionary
281
     1
  3
2dWireframe
350
2F
  3
3D Hidden
350
31
  3
3dWireframe
350
30
  3
Basic
350
32
  3
Brighten
350
36
  3
ColorChange
350
3A
  3
Conceptual
350
34
  3
Dim
350
35
  3
Facepattern
350
39
  3
Flat
350
2B
  3
FlatWithEdges
350
2C
  3
Gouraud
350
2D
  3
GouraudWithEdges
350
2E
  3
Linepattern
350
38
  3
Realistic
350
33
  3
Thicken
350
37
  0
DICTIONARY
  5
290
102
{ACAD_REACTORS
330
C
102
}
330
C
100
AcDbDictionary
281
     1
  3
DIMASSOC
350
293
  3
HIDETEXT
350
294
  0
LAYOUT
  5
1E
102
{ACAD_REACTORS
330
1A
102
}
330
1A
100
AcDbPlotSettings
  1

  2
none_device
  4

  6

 40
0.0
 41
0.0
 42
0.0
 43
0.0
 44
0.0
 45
0.0
 46
0.0
 47
0.0
 48
0.0
 49
0.0
140
0.0
141
0.0
142
1.0
143
1.0
 70
   688
 72
     0
 73
     0
 74
     5
  7

 75
    16
147
1.0
148
0.0
149
0.0
100
AcDbLayout
  1
Layout1
 70
     1
 71
     1
 10
0.0
 20
0.0
 11
12.0
 21
9.0
 12
0.0
 22
0.0
 32
0.0
 14
1.00000000000000E+20
 24
1.00000000000000E+20
 34
1.00000000000000E+20
 15
-1.00000000000000E+20
 25
-1.00000000000000E+20
 35
-1.00000000000000E+20
146
0.0
 13
0.0
 23
0.0
 33
0.0
 16
1.0
 26
0.0
 36
0.0
 17
0.0
 27
1.0
 37
0.0
 76
     0
330
1B
  0
LAYOUT
  5
26
102
{ACAD_REACTORS
330
1A
102
}
330
1A
100
AcDbPlotSettings
  1

  2
none_device
  4

  6

 40
0.0
 41
0.0
 42
0.0
 43
0.0
 44
0.0
 45
0.0
 46
0.0
 47
0.0
 48
0.0
 49
0.0
140
0.0
141
0.0
142
1.0
143
1.0
 70
   688
 72
     0
 73
     0
 74
     5
  7

 75
    16
147
1.0
148
0.0
149
0.0
100
AcDbLayout
  1
Layout2
 70
     1
 71
     2
 10
0.0
 20
0.0
 11
0.0
 21
0.0
 12
0.0
 22
0.0
 32
0.0
 14
0.0
 24
0.0
 34
0.0
 15
0.0
 25
0.0
 35
0.0
146
0.0
 13
0.0
 23
0.0
 33
0.0
 16
1.0
 26
0.0
 36
0.0
 17
0.0
 27
1.0
 37
0.0
 76
     0
330
23
  0
LAYOUT
  5
22
102
{ACAD_REACTORS
330
1A
102
}
330
1A
100
AcDbPlotSettings
  1

  2
none_device
  4

  6

 40
0.0
 41
0.0
 42
0.0
 43
0.0
 44
0.0
 45
0.0
 46
0.0
 47
0.0
 48
0.0
 49
0.0
140
0.0
141
0.0
142
1.0
143
1.0
 70
  1712
 72
     0
 73
     0
 74
     0
  7

 75
     0
147
1.0
148
0.0
149
0.0
100
AcDbLayout
  1
Model
 70
     1
 71
     0
 10
0.0
 20
0.0
 11
12.0
 21
9.0
 12
0.0
 22
0.0
 32
0.0
 14
-210.0000000000001
 24
0.0
 34
0.0
 15
0.0
 25
297.0000000000001
 35
0.0
146
0.0
 13
0.0
 23
0.0
 33
0.0
 16
1.0
 26
0.0
 36
0.0
 17
0.0
 27
1.0
 37
0.0
 76
     0
330
1F
331
29
  0
MATERIAL
  5
3D
102
{ACAD_REACTORS
330
3B
102
}
102
{ACAD_XDICTIONARY
360
2B7
102
}
330
3B
100
AcDbMaterial
  1
ByBlock
  0
MATERIAL
  5
3C
102
{ACAD_REACTORS
330
3B
102
}
102
{ACAD_XDICTIONARY
360
2B5
102
}
330
3B
100
AcDbMaterial
  1
ByLayer
  0
MATERIAL
  5
3E
102
{ACAD_REACTORS
330
3B
102
}
102
{ACAD_XDICTIONARY
360
2B9
102
}
330
3B
100
AcDbMaterial
  1
Global
  0
MLINESTYLE
  5
18
102
{ACAD_REACTORS
330
17
102
}
330
17
100
AcDbMlineStyle
  2
Standard
 70
     0
  3

 62
   256
 51
90.0
 52
90.0
 71
     2
 49
0.5
 62
   256
  6
BYLAYER
 49
-0.5
 62
   256
  6
BYLAYER
  0
ACDBPLACEHOLDER
  5
F
102
{ACAD_REACTORS
330
E
102
}
330
E
  0
VISUALSTYLE
  5
2F
102
{ACAD_REACTORS
330
2A
102
}
102
{ACAD_XDICTIONARY
360
29D
102
}
330
2A
100
AcDbVisualStyle
  2
2dWireframe
 70
     4
 71
     0
 72
     2
 73
     0
 90
        0
 40
-0.6
 41
-30.0
 62
     5
 63
     7
 74
     1
 91
        4
 64
     7
 65
   257
 75
     1
175
     1
 42
1.0
 92
        0
 66
   257
 43
1.0
 76
     1
 77
     6
 78
     2
 67
     7
 79
     5
170
     0
171
     0
290
     0
174
     0
 93
        1
 44
0.0
173
     0
291
     0
 45
0.0
1001
ACAD
1000
AcDbSavedByObjectVersion
1070
     0
  0
VISUALSTYLE
  5
31
102
{ACAD_REACTORS
330
2A
102
}
102
{ACAD_XDICTIONARY
360
2A1
102
}
330
2A
100
AcDbVisualStyle
  2
3D Hidden
 70
     6
 71
     1
 72
     2
 73
     2
 90
        0
 40
-0.6
 41
-30.0
 62
     5
 63
     7
 74
     2
 91
        2
 64
     7
 65
   257
 75
     2
175
     1
 42
40.0
 92
        0
 66
   257
 43
1.0
 76
     1
 77
     6
 78
     2
 67
     7
 79
     3
170
     0
171
     0
290
     0
174
     0
 93
        1
 44
0.0
173
     0
291
     0
 45
0.0
1001
ACAD
1000
AcDbSavedByObjectVersion
1070
     0
  0
VISUALSTYLE
  5
30
102
{ACAD_REACTORS
330
2A
102
}
102
{ACAD_XDICTIONARY
360
29F
102
}
330
2A
100
AcDbVisualStyle
  2
3dWireframe
 70
     5
 71
     0
 72
     2
 73
     0
 90
        0
 40
-0.6
 41
-30.0
 62
     5
 63
     7
 74
     1
 91
        4
 64
     7
 65
   257
 75
     1
175
     1
 42
1.0
 92
        0
 66
   257
 43
1.0
 76
     1
 77
     6
 78
     2
 67
     7
 79
     5
170
     0
171
     0
290
     0
174
     0
 93
        1
 44
0.0
173
     0
291
     0
 45
0.0
1001
ACAD
1000
AcDbSavedByObjectVersion
1070
     0
  0
VISUALSTYLE
  5
32
102
{ACAD_REACTORS
330
2A
102
}
102
{ACAD_XDICTIONARY
360
2A3
102
}
330
2A
100
AcDbVisualStyle
  2
Basic
 70
     7
 71
     1
 72
     0
 73
     1
 90
        0
 40
-0.6
 41
-30.0
 62
     5
 63
     7
 74
     0
 91
        4
 64
     7
 65
   257
 75
     1
175
     1
 42
1.0
 92
        8
 66
     7
 43
1.0
 76
     1
 77
     6
 78
     2
 67
     7
 79
     5
170
     0
171
     0
290
     0
174
     0
 93
        1
 44
0.0
173
     0
291
     1
 45
0.0
1001
ACAD
1000
AcDbSavedByObjectVersion
1070
     0
  0
VISUALSTYLE
  5
36
102
{ACAD_REACTORS
330
2A
102
}
102
{ACAD_XDICTIONARY
360
2AB
102
}
330
2A
100
AcDbVisualStyle
  2
Brighten
 70
    12
 71
     2
 72
     2
 73
     0
 90
        0
 40
-0.6
 41
-30.0
 62
     5
 63
     7
 74
     1
 91
        4
 64
     7
 65
   257
 75
     1
175
     1
 42
1.0
 92
        8
 66
     7
 43
1.0
 76
     1
 77
     6
 78
     2
 67
     7
 79
     5
170
     0
171
     0
290
     0
174
     0
 93
        1
 44
50.0
173
     0
291
     1
 45
0.0
1001
ACAD
1000
AcDbSavedByObjectVersion
1070
     0
  0
VISUALSTYLE
  5
3A
102
{ACAD_REACTORS
330
2A
102
}
102
{ACAD_XDICTIONARY
360
2B3
102
}
330
2A
100
AcDbVisualStyle
  2
ColorChange
 70
    16
 71
     2
 72
     2
 73
     3
 90
        0
 40
-0.6
 41
-30.0
 62
     5
 63
     8
 74
     1
 91
        4
 64
     7
 65
   257
 75
     1
175
     1
 42
1.0
 92
        8
 66
     8
 43
1.0
 76
     1
 77
     6
 78
     2
 67
     7
 79
     5
170
     0
171
     0
290
     0
174
     0
 93
        1
 44
0.0
173
     0
291
     1
 45
0.0
1001
ACAD
1000
AcDbSavedByObjectVersion
1070
     0
  0
VISUALSTYLE
  5
34
102
{ACAD_REACTORS
330
2A
102
}
102
{ACAD_XDICTIONARY
360
2A7
102
}
330
2A
100
AcDbVisualStyle
  2
Conceptual
 70
     9
 71
     3
 72
     2
 73
     0
 90
        0
 40
-0.6
 41
-30.0
 62
     5
 63
     7
 74
     2
 91
        2
 64
     7
 65
   257
 75
     1
175
     1
 42
40.0
 92
        8
 66
     7
 43
1.0
 76
     1
 77
     6
 78
     2
 67
     7
 79
     3
170
     0
171
     0
290
     0
174
     0
 93
        1
 44
0.0
173
     0
291
     0
 45
0.0
1001
ACAD
1000
AcDbSavedByObjectVersion
1070
     0
  0
VISUALSTYLE
  5
35
102
{ACAD_REACTORS
330
2A
102
}
102
{ACAD_XDICTIONARY
360
2A9
102
}
330
2A
100
AcDbVisualStyle
  2
Dim
 70
    11
 71
     2
 72
     2
 73
     0
 90
        0
 40
-0.6
 41
-30.0
 62
     5
 63
     7
 74
     1
 91
        4
 64
     7
 65
   257
 75
     1
175
     1
 42
1.0
 92
        8
 66
     7
 43
1.0
 76
     1
 77
     6
 78
     2
 67
     7
 79
     5
170
     0
171
     0
290
     0
174
     0
 93
        1
 44
-50.0
173
     0
291
     1
 45
0.0
1001
ACAD
1000
AcDbSavedByObjectVersion
1070
     0
  0
VISUALSTYLE
  5
39
102
{ACAD_REACTORS
330
2A
102
}
102
{ACAD_XDICTIONARY
360
2B1
102
}
330
2A
100
AcDbVisualStyle
  2
Facepattern
 70
    15
 71
     2
 72
     2
 73
     0
 90
        0
 40
-0.6
 41
-30.0
 62
     5
 63
     7
 74
     1
 91
        4
 64
     7
 65
   257
 75
     1
175
     1
 42
1.0
 92
        8
 66
     7
 43
1.0
 76
     1
 77
     6
 78
     2
 67
     7
 79
     5
170
     0
171
     0
290
     0
174
     0
 93
        1
 44
0.0
173
     0
291
     1
 45
0.0
1001
ACAD
1000
AcDbSavedByObjectVersion
1070
     0
  0
VISUALSTYLE
  5
2B
102
{ACAD_REACTORS
330
2A
102
}
102
{ACAD_XDICTIONARY
360
295
102
}
330
2A
100
AcDbVisualStyle
  2
Flat
 70
     0
 71
     2
 72
     1
 73
     1
 90
        2
 40
-0.6
 41
30.0
 62
     5
 63
     7
 74
     0
 91
        4
 64
     7
 65
   257
 75
     1
175
     1
 42
1.0
 92
        8
 66
     7
 43
1.0
 76
     1
 77
     6
 78
     2
 67
     7
 79
     5
170
     0
171
     0
290
     0
174
     0
 93
       13
 44
0.0
173
     0
291
     1
 45
0.0
1001
ACAD
1000
AcDbSavedByObjectVersion
1070
     0
  0
VISUALSTYLE
  5
2C
102
{ACAD_REACTORS
330
2A
102
}
102
{ACAD_XDICTIONARY
360
297
102
}
330
2A
100
AcDbVisualStyle
  2
FlatWithEdges
 70
     1
 71
     2
 72
     1
 73
     1
 90
        2
 40
-0.6
 41
30.0
 62
     5
 63
     7
 74
     1
 91
        4
 64
     7
 65
   257
 75
     1
175
     1
 42
1.0
 92
        0
 66
   257
 43
1.0
 76
     1
 77
     6
 78
     2
 67
     7
 79
     5
170
     0
171
     0
290
     0
174
     0
 93
       13
 44
0.0
173
     0
291
     1
 45
0.0
1001
ACAD
1000
AcDbSavedByObjectVersion
1070
     0
  0
VISUALSTYLE
  5
2D
102
{ACAD_REACTORS
330
2A
102
}
102
{ACAD_XDICTIONARY
360
299
102
}
330
2A
100
AcDbVisualStyle
  2
Gouraud
 70
     2
 71
     2
 72
     2
 73
     1
 90
        2
 40
-0.6
 41
30.0
 62
     5
 63
     7
 74
     0
 91
        4
 64
     7
 65
   257
 75
     1
175
     1
 42
1.0
 92
        0
 66
     7
 43
1.0
 76
     1
 77
     6
 78
     2
 67
     7
 79
     5
170
     0
171
     0
290
     0
174
     0
 93
       13
 44
0.0
173
     0
291
     1
 45
0.0
1001
ACAD
1000
AcDbSavedByObjectVersion
1070
     0
  0
VISUALSTYLE
  5
2E
102
{ACAD_REACTORS
330
2A
102
}
102
{ACAD_XDICTIONARY
360
29B
102
}
330
2A
100
AcDbVisualStyle
  2
GouraudWithEdges
 70
     3
 71
     2
 72
     2
 73
     1
 90
        2
 40
-0.6
 41
30.0
 62
     5
 63
     7
 74
     1
 91
        4
 64
     7
 65
   257
 75
     1
175
     1
 42
1.0
 92
        0
 66
   257
 43
1.0
 76
     1
 77
     6
 78
     2
 67
     7
 79
     5
170
     0
171
     0
290
     0
174
     0
 93
       13
 44
0.0
173
     0
291
     1
 45
0.0
1001
ACAD
1000
AcDbSavedByObjectVersion
1070
     0
  0
VISUALSTYLE
  5
38
102
{ACAD_REACTORS
330
2A
102
}
102
{ACAD_XDICTIONARY
360
2AF
102
}
330
2A
100
AcDbVisualStyle
  2
Linepattern
 70
    14
 71
     2
 72
     2
 73
     0
 90
        0
 40
-0.6
 41
-30.0
 62
     5
 63
     7
 74
     1
 91
        4
 64
     7
 65
   257
 75
     7
175
     7
 42
1.0
 92
        8
 66
     7
 43
1.0
 76
     1
 77
     6
 78
     2
 67
     7
 79
     5
170
     0
171
     0
290
     0
174
     0
 93
        1
 44
0.0
173
     0
291
     1
 45
0.0
1001
ACAD
1000
AcDbSavedByObjectVersion
1070
     0
  0
VISUALSTYLE
  5
33
102
{ACAD_REACTORS
330
2A
102
}
102
{ACAD_XDICTIONARY
360
2A5
102
}
330
2A
100
AcDbVisualStyle
  2
Realistic
 70
     8
 71
     2
 72
     2
 73
     0
 90
        0
 40
-0.6
 41
-30.0
 62
     5
 63
     7
 74
     1
 91
        0
 64
     7
 65
   257
 75
     1
175
     1
 42
1.0
 92
        8
 66
     8
 43
1.0
 76
     1
 77
     6
 78
     2
 67
     7
 79
     5
170
     0
171
     0
290
     0
174
     0
 93
       13
 44
0.0
173
     0
291
     0
 45
0.0
1001
ACAD
1000
AcDbSavedByObjectVersion
1070
     0
  0
VISUALSTYLE
  5
37
102
{ACAD_REACTORS
330
2A
102
}
102
{ACAD_XDICTIONARY
360
2AD
102
}
330
2A
100
AcDbVisualStyle
  2
Thicken
 70
    13
 71
     2
 72
     2
 73
     0
 90
        0
 40
-0.6
 41
-30.0
 62
     5
 63
     7
 74
     1
 91
        4
 64
     7
 65
   257
 75
     1
175
     1
 42
1.0
 92
       12
 66
     7
 43
1.0
 76
     1
 77
     6
 78
     2
 67
     7
 79
     5
170
     0
171
     0
290
     0
174
     0
 93
        1
 44
0.0
173
     0
291
     1
 45
0.0
1001
ACAD
1000
AcDbSavedByObjectVersion
1070
     0
  0
DICTIONARYVAR
  5
293
102
{ACAD_REACTORS
330
290
102
}
330
290
100
DictionaryVariables
280
     0
  1
2
  0
DICTIONARYVAR
  5
294
102
{ACAD_REACTORS
330
290
102
}
330
290
100
DictionaryVariables
280
     0
  1
1
  0
DICTIONARY
  5
2B7
330
3D
100
AcDbDictionary
280
     1
281
     1
  3
ACAD_XREC_ROUNDTRIP
360
2B8
  0
DICTIONARY
  5
2B5
330
3C
100
AcDbDictionary
280
     1
281
     1
  3
ACAD_XREC_ROUNDTRIP
360
2B6
  0
DICTIONARY
  5
2B9
330
3E
100
AcDbDictionary
280
     1
281
     1
  3
ACAD_XREC_ROUNDTRIP
360
2BA
  0
DICTIONARY
  5
29D
330
2F
100
AcDbDictionary
280
     1
281
     1
  3
ACAD_XREC_ROUNDTRIP
360
29E
  0
DICTIONARY
  5
2A1
330
31
100
AcDbDictionary
280
     1
281
     1
  3
ACAD_XREC_ROUNDTRIP
360
2A2
  0
DICTIONARY
  5
29F
330
30
100
AcDbDictionary
280
     1
281
     1
  3
ACAD_XREC_ROUNDTRIP
360
2A0
  0
DICTIONARY
  5
2A3
330
32
100
AcDbDictionary
280
     1
281
     1
  3
ACAD_XREC_ROUNDTRIP
360
2A4
  0
DICTIONARY
  5
2AB
330
36
100
AcDbDictionary
280
     1
281
     1
  3
ACAD_XREC_ROUNDTRIP
360
2AC
  0
DICTIONARY
  5
2B3
330
3A
100
AcDbDictionary
280
     1
281
     1
  3
ACAD_XREC_ROUNDTRIP
360
2B4
  0
DICTIONARY
  5
2A7
330
34
100
AcDbDictionary
280
     1
281
     1
  3
ACAD_XREC_ROUNDTRIP
360
2A8
  0
DICTIONARY
  5
2A9
330
35
100
AcDbDictionary
280
     1
281
     1
  3
ACAD_XREC_ROUNDTRIP
360
2AA
  0
DICTIONARY
  5
2B1
330
39
100
AcDbDictionary
280
     1
281
     1
  3
ACAD_XREC_ROUNDTRIP
360
2B2
  0
DICTIONARY
  5
295
330
2B
100
AcDbDictionary
280
     1
281
     1
  3
ACAD_XREC_ROUNDTRIP
360
296
  0
DICTIONARY
  5
297
330
2C
100
AcDbDictionary
280
     1
281
     1
  3
ACAD_XREC_ROUNDTRIP
360
298
  0
DICTIONARY
  5
299
330
2D
100
AcDbDictionary
280
     1
281
     1
  3
ACAD_XREC_ROUNDTRIP
360
29A
  0
DICTIONARY
  5
29B
330
2E
100
AcDbDictionary
280
     1
281
     1
  3
ACAD_XREC_ROUNDTRIP
360
29C
  0
DICTIONARY
  5
2AF
330
38
100
AcDbDictionary
280
     1
281
     1
  3
ACAD_XREC_ROUNDTRIP
360
2B0
  0
DICTIONARY
  5
2A5
330
33
100
AcDbDictionary
280
     1
281
     1
  3
ACAD_XREC_ROUNDTRIP
360
2A6
  0
DICTIONARY
  5
2AD
330
37
100
AcDbDictionary
280
     1
281
     1
  3
ACAD_XREC_ROUNDTRIP
360
2AE
  0
XRECORD
  5
2B8
102
{ACAD_REACTORS
330
2B7
102
}
330
2B7
100
AcDbXrecord
280
     1
102
MATERIAL
148
0.0
149
0.0
149
0.0
 93
        0
 94
      127
282
     0
 72
     1
 77
     1
171
     1
175
     1
179
     1
273
     0
  0
XRECORD
  5
2B6
102
{ACAD_REACTORS
330
2B5
102
}
330
2B5
100
AcDbXrecord
280
     1
102
MATERIAL
148
0.0
149
0.0
149
0.0
 93
        0
 94
      127
282
     0
 72
     1
 77
     1
171
     1
175
     1
179
     1
273
     0
  0
XRECORD
  5
2BA
102
{ACAD_REACTORS
330
2B9
102
}
330
2B9
100
AcDbXrecord
280
     1
102
MATERIAL
148
0.0
149
0.0
149
0.0
 93
        0
 94
      127
282
     0
 72
     1
 77
     1
171
     1
175
     1
179
     1
273
     0
  0
XRECORD
  5
29E
102
{ACAD_REACTORS
330
29D
102
}
330
29D
100
AcDbXrecord
280
     1
102
RTVSPropertyOp0
 70
     1
102
RTVSPropertyOp1
 70
     1
102
RTVSPropertyOp2
 70
     1
102
RTVSPropertyOp3
 70
     1
102
RTVSPropertyOp4
 70
     1
102
RTVSPropertyOp5
 70
     1
102
RTVSPropertyOp6
 70
     1
102
RTVSPropertyOp7
 70
     1
102
RTVSPropertyOp8
 70
     1
102
RTVSPropertyOp9
 70
     1
102
RTVSPropertyOp10
 70
     1
102
RTVSPropertyOp11
 70
     1
102
RTVSPropertyOp12
 70
     1
102
RTVSPropertyOp13
 70
     1
102
RTVSPropertyOp14
 70
     1
102
RTVSPropertyOp15
 70
     1
102
RTVSPropertyOp16
 70
     1
102
RTVSPropertyOp17
 70
     1
102
RTVSPropertyOp18
 70
     1
102
RTVSPropertyOp19
 70
     1
102
RTVSPropertyOp20
 70
     1
102
RTVSPropertyOp21
 70
     1
102
RTVSPropertyOp22
 70
     1
102
RTVSPropertyOp23
 70
     1
102
RTVSPropertyOp24
 70
     1
102
RTVSPropertyOp25
 70
     1
102
RTVSPropertyOp26
 70
     1
102
RTVSPropertyOp27
 70
     1
102
RTVSPropertyOp28
 70
     1
102
RTVSPropertyOp29
 70
     1
102
RTVSPropertyOp30
 70
     1
102
RTVSPropertyOp31
 70
     1
102
RTVSPropertyOp32
 70
     1
  0
XRECORD
  5
2A2
102
{ACAD_REACTORS
330
2A1
102
}
330
2A1
100
AcDbXrecord
280
     1
102
RTVSPropertyOp0
 70
     1
102
RTVSPropertyOp1
 70
     1
102
RTVSPropertyOp2
 70
     1
102
RTVSPropertyOp3
 70
     1
102
RTVSPropertyOp4
 70
     1
102
RTVSPropertyOp5
 70
     1
102
RTVSPropertyOp6
 70
     1
102
RTVSPropertyOp7
 70
     1
102
RTVSPropertyOp8
 70
     1
102
RTVSPropertyOp9
 70
     1
102
RTVSPropertyOp10
 70
     1
102
RTVSPropertyOp11
 70
     1
102
RTVSPropertyOp12
 70
     1
102
RTVSPropertyOp13
 70
     1
102
RTVSPropertyOp14
 70
     1
102
RTVSPropertyOp15
 70
     1
102
RTVSPropertyOp16
 70
     1
102
RTVSPropertyOp17
 70
     1
102
RTVSPropertyOp18
 70
     1
102
RTVSPropertyOp19
 70
     1
102
RTVSPropertyOp20
 70
     1
102
RTVSPropertyOp21
 70
     1
102
RTVSPropertyOp22
 70
     1
102
RTVSPropertyOp23
 70
     1
102
RTVSPropertyOp24
 70
     1
102
RTVSPropertyOp25
 70
     1
102
RTVSPropertyOp26
 70
     1
102
RTVSPropertyOp27
 70
     1
102
RTVSPropertyOp28
 70
     1
102
RTVSPropertyOp29
 70
     1
102
RTVSPropertyOp30
 70
     1
102
RTVSPropertyOp31
 70
     1
102
RTVSPropertyOp32
 70
     1
  0
XRECORD
  5
2A0
102
{ACAD_REACTORS
330
29F
102
}
330
29F
100
AcDbXrecord
280
     1
102
RTVSPropertyOp0
 70
     1
102
RTVSPropertyOp1
 70
     1
102
RTVSPropertyOp2
 70
     1
102
RTVSPropertyOp3
 70
     1
102
RTVSPropertyOp4
 70
     1
102
RTVSPropertyOp5
 70
     1
102
RTVSPropertyOp6
 70
     1
102
RTVSPropertyOp7
 70
     1
102
RTVSPropertyOp8
 70
     1
102
RTVSPropertyOp9
 70
     1
102
RTVSPropertyOp10
 70
     1
102
RTVSPropertyOp11
 70
     1
102
RTVSPropertyOp12
 70
     1
102
RTVSPropertyOp13
 70
     1
102
RTVSPropertyOp14
 70
     1
102
RTVSPropertyOp15
 70
     1
102
RTVSPropertyOp16
 70
     1
102
RTVSPropertyOp17
 70
     1
102
RTVSPropertyOp18
 70
     1
102
RTVSPropertyOp19
 70
     1
102
RTVSPropertyOp20
 70
     1
102
RTVSPropertyOp21
 70
     1
102
RTVSPropertyOp22
 70
     1
102
RTVSPropertyOp23
 70
     1
102
RTVSPropertyOp24
 70
     1
102
RTVSPropertyOp25
 70
     1
102
RTVSPropertyOp26
 70
     1
102
RTVSPropertyOp27
 70
     1
102
RTVSPropertyOp28
 70
     1
102
RTVSPropertyOp29
 70
     1
102
RTVSPropertyOp30
 70
     1
102
RTVSPropertyOp31
 70
     1
102
RTVSPropertyOp32
 70
     1
  0
XRECORD
  5
2A4
102
{ACAD_REACTORS
330
2A3
102
}
330
2A3
100
AcDbXrecord
280
     1
102
RTVSPropertyOp0
 70
     1
102
RTVSPropertyOp1
 70
     1
102
RTVSPropertyOp2
 70
     1
102
RTVSPropertyOp3
 70
     1
102
RTVSPropertyOp4
 70
     1
102
RTVSPropertyOp5
 70
     1
102
RTVSPropertyOp6
 70
     1
102
RTVSPropertyOp7
 70
     1
102
RTVSPropertyOp8
 70
     1
102
RTVSPropertyOp9
 70
     1
102
RTVSPropertyOp10
 70
     1
102
RTVSPropertyOp11
 70
     1
102
RTVSPropertyOp12
 70
     1
102
RTVSPropertyOp13
 70
     1
102
RTVSPropertyOp14
 70
     1
102
RTVSPropertyOp15
 70
     1
102
RTVSPropertyOp16
 70
     1
102
RTVSPropertyOp17
 70
     1
102
RTVSPropertyOp18
 70
     1
102
RTVSPropertyOp19
 70
     1
102
RTVSPropertyOp20
 70
     1
102
RTVSPropertyOp21
 70
     1
102
RTVSPropertyOp22
 70
     1
102
RTVSPropertyOp23
 70
     1
102
RTVSPropertyOp24
 70
     1
102
RTVSPropertyOp25
 70
     1
102
RTVSPropertyOp26
 70
     1
102
RTVSPropertyOp27
 70
     1
102
RTVSPropertyOp28
 70
     1
102
RTVSPropertyOp29
 70
     1
102
RTVSPropertyOp30
 70
     1
102
RTVSPropertyOp31
 70
     1
102
RTVSPropertyOp32
 70
     1
  0
XRECORD
  5
2AC
102
{ACAD_REACTORS
330
2AB
102
}
330
2AB
100
AcDbXrecord
280
     1
102
RTVSPropertyOp0
 70
     1
102
RTVSPropertyOp1
 70
     1
102
RTVSPropertyOp2
 70
     1
102
RTVSPropertyOp3
 70
     1
102
RTVSPropertyOp4
 70
     1
102
RTVSPropertyOp5
 70
     1
102
RTVSPropertyOp6
 70
     1
102
RTVSPropertyOp7
 70
     1
102
RTVSPropertyOp8
 70
     1
102
RTVSPropertyOp9
 70
     1
102
RTVSPropertyOp10
 70
     1
102
RTVSPropertyOp11
 70
     1
102
RTVSPropertyOp12
 70
     1
102
RTVSPropertyOp13
 70
     1
102
RTVSPropertyOp14
 70
     1
102
RTVSPropertyOp15
 70
     1
102
RTVSPropertyOp16
 70
     1
102
RTVSPropertyOp17
 70
     1
102
RTVSPropertyOp18
 70
     1
102
RTVSPropertyOp19
 70
     1
102
RTVSPropertyOp20
 70
     1
102
RTVSPropertyOp21
 70
     1
102
RTVSPropertyOp22
 70
     1
102
RTVSPropertyOp23
 70
     1
102
RTVSPropertyOp24
 70
     1
102
RTVSPropertyOp25
 70
     1
102
RTVSPropertyOp26
 70
     1
102
RTVSPropertyOp27
 70
     1
102
RTVSPropertyOp28
 70
     1
102
RTVSPropertyOp29
 70
     1
102
RTVSPropertyOp30
 70
     1
102
RTVSPropertyOp31
 70
     1
102
RTVSPropertyOp32
 70
     1
  0
XRECORD
  5
2B4
102
{ACAD_REACTORS
330
2B3
102
}
330
2B3
100
AcDbXrecord
280
     1
102
RTVSPropertyOp0
 70
     1
102
RTVSPropertyOp1
 70
     1
102
RTVSPropertyOp2
 70
     1
102
RTVSPropertyOp3
 70
     1
102
RTVSPropertyOp4
 70
     1
102
RTVSPropertyOp5
 70
     1
102
RTVSPropertyOp6
 70
     1
102
RTVSPropertyOp7
 70
     1
102
RTVSPropertyOp8
 70
     1
102
RTVSPropertyOp9
 70
     1
102
RTVSPropertyOp10
 70
     1
102
RTVSPropertyOp11
 70
     1
102
RTVSPropertyOp12
 70
     1
102
RTVSPropertyOp13
 70
     1
102
RTVSPropertyOp14
 70
     1
102
RTVSPropertyOp15
 70
     1
102
RTVSPropertyOp16
 70
     1
102
RTVSPropertyOp17
 70
     1
102
RTVSPropertyOp18
 70
     1
102
RTVSPropertyOp19
 70
     1
102
RTVSPropertyOp20
 70
     1
102
RTVSPropertyOp21
 70
     1
102
RTVSPropertyOp22
 70
     1
102
RTVSPropertyOp23
 70
     1
102
RTVSPropertyOp24
 70
     1
102
RTVSPropertyOp25
 70
     1
102
RTVSPropertyOp26
 70
     1
102
RTVSPropertyOp27
 70
     1
102
RTVSPropertyOp28
 70
     1
102
RTVSPropertyOp29
 70
     1
102
RTVSPropertyOp30
 70
     1
102
RTVSPropertyOp31
 70
     1
102
RTVSPropertyOp32
 70
     1
  0
XRECORD
  5
2A8
102
{ACAD_REACTORS
330
2A7
102
}
330
2A7
100
AcDbXrecord
280
     1
102
RTVSPropertyOp0
 70
     1
102
RTVSPropertyOp1
 70
     1
102
RTVSPropertyOp2
 70
     1
102
RTVSPropertyOp3
 70
     1
102
RTVSPropertyOp4
 70
     1
102
RTVSPropertyOp5
 70
     1
102
RTVSPropertyOp6
 70
     1
102
RTVSPropertyOp7
 70
     1
102
RTVSPropertyOp8
 70
     1
102
RTVSPropertyOp9
 70
     1
102
RTVSPropertyOp10
 70
     1
102
RTVSPropertyOp11
 70
     1
102
RTVSPropertyOp12
 70
     1
102
RTVSPropertyOp13
 70
     1
102
RTVSPropertyOp14
 70
     1
102
RTVSPropertyOp15
 70
     1
102
RTVSPropertyOp16
 70
     1
102
RTVSPropertyOp17
 70
     1
102
RTVSPropertyOp18
 70
     1
102
RTVSPropertyOp19
 70
     1
102
RTVSPropertyOp20
 70
     1
102
RTVSPropertyOp21
 70
     1
102
RTVSPropertyOp22
 70
     1
102
RTVSPropertyOp23
 70
     1
102
RTVSPropertyOp24
 70
     1
102
RTVSPropertyOp25
 70
     1
102
RTVSPropertyOp26
 70
     1
102
RTVSPropertyOp27
 70
     1
102
RTVSPropertyOp28
 70
     1
102
RTVSPropertyOp29
 70
     1
102
RTVSPropertyOp30
 70
     1
102
RTVSPropertyOp31
 70
     1
102
RTVSPropertyOp32
 70
     1
  0
XRECORD
  5
2AA
102
{ACAD_REACTORS
330
2A9
102
}
330
2A9
100
AcDbXrecord
280
     1
102
RTVSPropertyOp0
 70
     1
102
RTVSPropertyOp1
 70
     1
102
RTVSPropertyOp2
 70
     1
102
RTVSPropertyOp3
 70
     1
102
RTVSPropertyOp4
 70
     1
102
RTVSPropertyOp5
 70
     1
102
RTVSPropertyOp6
 70
     1
102
RTVSPropertyOp7
 70
     1
102
RTVSPropertyOp8
 70
     1
102
RTVSPropertyOp9
 70
     1
102
RTVSPropertyOp10
 70
     1
102
RTVSPropertyOp11
 70
     1
102
RTVSPropertyOp12
 70
     1
102
RTVSPropertyOp13
 70
     1
102
RTVSPropertyOp14
 70
     1
102
RTVSPropertyOp15
 70
     1
102
RTVSPropertyOp16
 70
     1
102
RTVSPropertyOp17
 70
     1
102
RTVSPropertyOp18
 70
     1
102
RTVSPropertyOp19
 70
     1
102
RTVSPropertyOp20
 70
     1
102
RTVSPropertyOp21
 70
     1
102
RTVSPropertyOp22
 70
     1
102
RTVSPropertyOp23
 70
     1
102
RTVSPropertyOp24
 70
     1
102
RTVSPropertyOp25
 70
     1
102
RTVSPropertyOp26
 70
     1
102
RTVSPropertyOp27
 70
     1
102
RTVSPropertyOp28
 70
     1
102
RTVSPropertyOp29
 70
     1
102
RTVSPropertyOp30
 70
     1
102
RTVSPropertyOp31
 70
     1
102
RTVSPropertyOp32
 70
     1
  0
XRECORD
  5
2B2
102
{ACAD_REACTORS
330
2B1
102
}
330
2B1
100
AcDbXrecord
280
     1
102
RTVSPropertyOp0
 70
     1
102
RTVSPropertyOp1
 70
     1
102
RTVSPropertyOp2
 70
     1
102
RTVSPropertyOp3
 70
     1
102
RTVSPropertyOp4
 70
     1
102
RTVSPropertyOp5
 70
     1
102
RTVSPropertyOp6
 70
     1
102
RTVSPropertyOp7
 70
     1
102
RTVSPropertyOp8
 70
     1
102
RTVSPropertyOp9
 70
     1
102
RTVSPropertyOp10
 70
     1
102
RTVSPropertyOp11
 70
     1
102
RTVSPropertyOp12
 70
     1
102
RTVSPropertyOp13
 70
     1
102
RTVSPropertyOp14
 70
     1
102
RTVSPropertyOp15
 70
     1
102
RTVSPropertyOp16
 70
     1
102
RTVSPropertyOp17
 70
     1
102
RTVSPropertyOp18
 70
     1
102
RTVSPropertyOp19
 70
     1
102
RTVSPropertyOp20
 70
     1
102
RTVSPropertyOp21
 70
     1
102
RTVSPropertyOp22
 70
     1
102
RTVSPropertyOp23
 70
     1
102
RTVSPropertyOp24
 70
     1
102
RTVSPropertyOp25
 70
     1
102
RTVSPropertyOp26
 70
     1
102
RTVSPropertyOp27
 70
     1
102
RTVSPropertyOp28
 70
     1
102
RTVSPropertyOp29
 70
     1
102
RTVSPropertyOp30
 70
     1
102
RTVSPropertyOp31
 70
     1
102
RTVSPropertyOp32
 70
     1
  0
XRECORD
  5
296
102
{ACAD_REACTORS
330
295
102
}
330
295
100
AcDbXrecord
280
     1
102
RTVSPropertyOp0
 70
     1
102
RTVSPropertyOp1
 70
     1
102
RTVSPropertyOp2
 70
     1
102
RTVSPropertyOp3
 70
     1
102
RTVSPropertyOp4
 70
     1
102
RTVSPropertyOp5
 70
     1
102
RTVSPropertyOp6
 70
     1
102
RTVSPropertyOp7
 70
     1
102
RTVSPropertyOp8
 70
     1
102
RTVSPropertyOp9
 70
     1
102
RTVSPropertyOp10
 70
     1
102
RTVSPropertyOp11
 70
     1
102
RTVSPropertyOp12
 70
     1
102
RTVSPropertyOp13
 70
     1
102
RTVSPropertyOp14
 70
     1
102
RTVSPropertyOp15
 70
     1
102
RTVSPropertyOp16
 70
     1
102
RTVSPropertyOp17
 70
     1
102
RTVSPropertyOp18
 70
     1
102
RTVSPropertyOp19
 70
     1
102
RTVSPropertyOp20
 70
     1
102
RTVSPropertyOp21
 70
     1
102
RTVSPropertyOp22
 70
     1
102
RTVSPropertyOp23
 70
     1
102
RTVSPropertyOp24
 70
     1
102
RTVSPropertyOp25
 70
     1
102
RTVSPropertyOp26
 70
     1
102
RTVSPropertyOp27
 70
     1
102
RTVSPropertyOp28
 70
     1
102
RTVSPropertyOp29
 70
     1
102
RTVSPropertyOp30
 70
     1
102
RTVSPropertyOp31
 70
     1
102
RTVSPropertyOp32
 70
     1
  0
XRECORD
  5
298
102
{ACAD_REACTORS
330
297
102
}
330
297
100
AcDbXrecord
280
     1
102
RTVSPropertyOp0
 70
     1
102
RTVSPropertyOp1
 70
     1
102
RTVSPropertyOp2
 70
     1
102
RTVSPropertyOp3
 70
     1
102
RTVSPropertyOp4
 70
     1
102
RTVSPropertyOp5
 70
     1
102
RTVSPropertyOp6
 70
     1
102
RTVSPropertyOp7
 70
     1
102
RTVSPropertyOp8
 70
     1
102
RTVSPropertyOp9
 70
     1
102
RTVSPropertyOp10
 70
     1
102
RTVSPropertyOp11
 70
     1
102
RTVSPropertyOp12
 70
     1
102
RTVSPropertyOp13
 70
     1
102
RTVSPropertyOp14
 70
     1
102
RTVSPropertyOp15
 70
     1
102
RTVSPropertyOp16
 70
     1
102
RTVSPropertyOp17
 70
     1
102
RTVSPropertyOp18
 70
     1
102
RTVSPropertyOp19
 70
     1
102
RTVSPropertyOp20
 70
     1
102
RTVSPropertyOp21
 70
     1
102
RTVSPropertyOp22
 70
     1
102
RTVSPropertyOp23
 70
     1
102
RTVSPropertyOp24
 70
     1
102
RTVSPropertyOp25
 70
     1
102
RTVSPropertyOp26
 70
     1
102
RTVSPropertyOp27
 70
     1
102
RTVSPropertyOp28
 70
     1
102
RTVSPropertyOp29
 70
     1
102
RTVSPropertyOp30
 70
     1
102
RTVSPropertyOp31
 70
     1
102
RTVSPropertyOp32
 70
     1
  0
XRECORD
  5
29A
102
{ACAD_REACTORS
330
299
102
}
330
299
100
AcDbXrecord
280
     1
102
RTVSPropertyOp0
 70
     1
102
RTVSPropertyOp1
 70
     1
102
RTVSPropertyOp2
 70
     1
102
RTVSPropertyOp3
 70
     1
102
RTVSPropertyOp4
 70
     1
102
RTVSPropertyOp5
 70
     1
102
RTVSPropertyOp6
 70
     1
102
RTVSPropertyOp7
 70
     1
102
RTVSPropertyOp8
 70
     1
102
RTVSPropertyOp9
 70
     1
102
RTVSPropertyOp10
 70
     1
102
RTVSPropertyOp11
 70
     1
102
RTVSPropertyOp12
 70
     1
102
RTVSPropertyOp13
 70
     1
102
RTVSPropertyOp14
 70
     1
102
RTVSPropertyOp15
 70
     1
102
RTVSPropertyOp16
 70
     1
102
RTVSPropertyOp17
 70
     1
102
RTVSPropertyOp18
 70
     1
102
RTVSPropertyOp19
 70
     1
102
RTVSPropertyOp20
 70
     1
102
RTVSPropertyOp21
 70
     1
102
RTVSPropertyOp22
 70
     1
102
RTVSPropertyOp23
 70
     1
102
RTVSPropertyOp24
 70
     1
102
RTVSPropertyOp25
 70
     1
102
RTVSPropertyOp26
 70
     1
102
RTVSPropertyOp27
 70
     1
102
RTVSPropertyOp28
 70
     1
102
RTVSPropertyOp29
 70
     1
102
RTVSPropertyOp30
 70
     1
102
RTVSPropertyOp31
 70
     1
102
RTVSPropertyOp32
 70
     1
  0
XRECORD
  5
29C
102
{ACAD_REACTORS
330
29B
102
}
330
29B
100
AcDbXrecord
280
     1
102
RTVSPropertyOp0
 70
     1
102
RTVSPropertyOp1
 70
     1
102
RTVSPropertyOp2
 70
     1
102
RTVSPropertyOp3
 70
     1
102
RTVSPropertyOp4
 70
     1
102
RTVSPropertyOp5
 70
     1
102
RTVSPropertyOp6
 70
     1
102
RTVSPropertyOp7
 70
     1
102
RTVSPropertyOp8
 70
     1
102
RTVSPropertyOp9
 70
     1
102
RTVSPropertyOp10
 70
     1
102
RTVSPropertyOp11
 70
     1
102
RTVSPropertyOp12
 70
     1
102
RTVSPropertyOp13
 70
     1
102
RTVSPropertyOp14
 70
     1
102
RTVSPropertyOp15
 70
     1
102
RTVSPropertyOp16
 70
     1
102
RTVSPropertyOp17
 70
     1
102
RTVSPropertyOp18
 70
     1
102
RTVSPropertyOp19
 70
     1
102
RTVSPropertyOp20
 70
     1
102
RTVSPropertyOp21
 70
     1
102
RTVSPropertyOp22
 70
     1
102
RTVSPropertyOp23
 70
     1
102
RTVSPropertyOp24
 70
     1
102
RTVSPropertyOp25
 70
     1
102
RTVSPropertyOp26
 70
     1
102
RTVSPropertyOp27
 70
     1
102
RTVSPropertyOp28
 70
     1
102
RTVSPropertyOp29
 70
     1
102
RTVSPropertyOp30
 70
     1
102
RTVSPropertyOp31
 70
     1
102
RTVSPropertyOp32
 70
     1
  0
XRECORD
  5
2B0
102
{ACAD_REACTORS
330
2AF
102
}
330
2AF
100
AcDbXrecord
280
     1
102
RTVSPropertyOp0
 70
     1
102
RTVSPropertyOp1
 70
     1
102
RTVSPropertyOp2
 70
     1
102
RTVSPropertyOp3
 70
     1
102
RTVSPropertyOp4
 70
     1
102
RTVSPropertyOp5
 70
     1
102
RTVSPropertyOp6
 70
     1
102
RTVSPropertyOp7
 70
     1
102
RTVSPropertyOp8
 70
     1
102
RTVSPropertyOp9
 70
     1
102
RTVSPropertyOp10
 70
     1
102
RTVSPropertyOp11
 70
     1
102
RTVSPropertyOp12
 70
     1
102
RTVSPropertyOp13
 70
     1
102
RTVSPropertyOp14
 70
     1
102
RTVSPropertyOp15
 70
     1
102
RTVSPropertyOp16
 70
     1
102
RTVSPropertyOp17
 70
     1
102
RTVSPropertyOp18
 70
     1
102
RTVSPropertyOp19
 70
     1
102
RTVSPropertyOp20
 70
     1
102
RTVSPropertyOp21
 70
     1
102
RTVSPropertyOp22
 70
     1
102
RTVSPropertyOp23
 70
     1
102
RTVSPropertyOp24
 70
     1
102
RTVSPropertyOp25
 70
     1
102
RTVSPropertyOp26
 70
     1
102
RTVSPropertyOp27
 70
     1
102
RTVSPropertyOp28
 70
     1
102
RTVSPropertyOp29
 70
     1
102
RTVSPropertyOp30
 70
     1
102
RTVSPropertyOp31
 70
     1
102
RTVSPropertyOp32
 70
     1
  0
XRECORD
  5
2A6
102
{ACAD_REACTORS
330
2A5
102
}
330
2A5
100
AcDbXrecord
280
     1
102
RTVSPropertyOp0
 70
     1
102
RTVSPropertyOp1
 70
     1
102
RTVSPropertyOp2
 70
     1
102
RTVSPropertyOp3
 70
     1
102
RTVSPropertyOp4
 70
     1
102
RTVSPropertyOp5
 70
     1
102
RTVSPropertyOp6
 70
     1
102
RTVSPropertyOp7
 70
     1
102
RTVSPropertyOp8
 70
     1
102
RTVSPropertyOp9
 70
     1
102
RTVSPropertyOp10
 70
     1
102
RTVSPropertyOp11
 70
     1
102
RTVSPropertyOp12
 70
     1
102
RTVSPropertyOp13
 70
     1
102
RTVSPropertyOp14
 70
     1
102
RTVSPropertyOp15
 70
     1
102
RTVSPropertyOp16
 70
     1
102
RTVSPropertyOp17
 70
     1
102
RTVSPropertyOp18
 70
     1
102
RTVSPropertyOp19
 70
     1
102
RTVSPropertyOp20
 70
     1
102
RTVSPropertyOp21
 70
     1
102
RTVSPropertyOp22
 70
     1
102
RTVSPropertyOp23
 70
     1
102
RTVSPropertyOp24
 70
     1
102
RTVSPropertyOp25
 70
     1
102
RTVSPropertyOp26
 70
     1
102
RTVSPropertyOp27
 70
     1
102
RTVSPropertyOp28
 70
     1
102
RTVSPropertyOp29
 70
     1
102
RTVSPropertyOp30
 70
     1
102
RTVSPropertyOp31
 70
     1
102
RTVSPropertyOp32
 70
     1
  0
XRECORD
  5
2AE
102
{ACAD_REACTORS
330
2AD
102
}
330
2AD
100
AcDbXrecord
280
     1
102
RTVSPropertyOp0
 70
     1
102
RTVSPropertyOp1
 70
     1
102
RTVSPropertyOp2
 70
     1
102
RTVSPropertyOp3
 70
     1
102
RTVSPropertyOp4
 70
     1
102
RTVSPropertyOp5
 70
     1
102
RTVSPropertyOp6
 70
     1
102
RTVSPropertyOp7
 70
     1
102
RTVSPropertyOp8
 70
     1
102
RTVSPropertyOp9
 70
     1
102
RTVSPropertyOp10
 70
     1
102
RTVSPropertyOp11
 70
     1
102
RTVSPropertyOp12
 70
     1
102
RTVSPropertyOp13
 70
     1
102
RTVSPropertyOp14
 70
     1
102
RTVSPropertyOp15
 70
     1
102
RTVSPropertyOp16
 70
     1
102
RTVSPropertyOp17
 70
     1
102
RTVSPropertyOp18
 70
     1
102
RTVSPropertyOp19
 70
     1
102
RTVSPropertyOp20
 70
     1
102
RTVSPropertyOp21
 70
     1
102
RTVSPropertyOp22
 70
     1
102
RTVSPropertyOp23
 70
     1
102
RTVSPropertyOp24
 70
     1
102
RTVSPropertyOp25
 70
     1
102
RTVSPropertyOp26
 70
     1
102
RTVSPropertyOp27
 70
     1
102
RTVSPropertyOp28
 70
     1
102
RTVSPropertyOp29
 70
     1
102
RTVSPropertyOp30
 70
     1
102
RTVSPropertyOp31
 70
     1
102
RTVSPropertyOp32
 70
     1
  0
ENDSEC
  0
EOF
